.
Авторизация | Регистрация
Хочешь лучшие торренты? Добавь свой email!
Добавить

Торрент скачать бесплатно

» » Защитники снов / Dream Corps (2017) WEB-DLRip [H.264 / 720p-LQ] (сезон 1, серии 1-10 из 52) [Обновляемая] торрент скачать бесплатно




    Защитники снов / Dream Corps (2017) WEB-DLRip [H.264 / 720p-LQ] (сезон 1, серии 1-10 из 52) [Обновляемая] торрент скачать бесплатно

    Опубликовал: Админ | Дата: 19-11-2017, 05:00 | Просмотров: 0

    Год выпуска: 2017
    Производство: Китай
    Жанр: Мультсериал, Компьютерная анимация
    Режиссер: Жубинг Ли

    Описание

    Злодей Кошмариус пытается уничтожить детские мечты. Но на помощь приходят Флай и Лиз, которые называют себя Защитники Снов. Стремясь развеять магию Кошмариуса они постоянно попадают в смешные передряги. Но что не сделаешь, чтобы помочь детям реализовать свои заветные желания.
    Возраст: 6+ (зрителям, достигшим 6 лет)
    Рейтинг MPAA: PG (рекомендуется присутствие родителей)
    Релиз от: Natasha77
    Продолжительность: 00: 14: 00 серия
    Качество видео: WEB-DLRip
    Перевод: Дублированный (CLS MЕDIA)
    Субтитры: Отсутствуют
    Видео: AVC/H.264, 1280x720, ~1700 kbps
    Аудио: Русский: AС3, 2 ch, 128 kbps
    General
    Unique ID : 95394805056770793251679962596049016835 (0x47C45F0453D453A54C74D874E4B9D803)
    Complete name : C: 1_Первое знакомство.mkv
    Format : Matroska
    Format version : Version 4/Version 2
    File size : 189 MiB
    Duration : 14 min 13 s
    Overall bit rate : 1 855 kb/s
    Writing application : Lavf57.71.100
    Writing library : Lavf57.71.100
    ErrorDetectionType : Per level 1
    Video
    ID : 1
    Format : AVC
    Format/Info : Advanced Video Codec
    Format profile : Baseline@L3
    Format settings : 2 Ref Frames
    Format settings, CABAC : No
    Format settings, RefFrames : 2 frames
    Codec ID : V_MPEG4/ISO/AVC
    Duration : 14 min 13 s
    Bit rate : 1 690 kb/s
    Width : 1 280 pixels
    Height : 720 pixels
    Display aspect ratio : 16: 9
    Frame rate mode : Constant
    Frame rate : 25.000 FPS
    Color space : YUV
    Chroma subsampling : 4: 2: 0
    Bit depth : 8 bits
    Scan type : Progressive
    Bits/(Pixel*Frame) : 0.073
    Stream size : 172 MiB (91%)
    Writing library : x264 core 144 r2533 c8a773e
    Encoding settings : cabac=0/ref=2/deblock=1: 1: 1/analyse=0x1: 0x131/me=umh/subme=10/psy=1/psy_rd=0.40: 0.00/mixed_ref=1/me_range=24/chroma_me=1/trellis=2/8x8dct=0/cqm=0/deadzone=21, 11/fast_pskip=1/chroma_qp_offset=-2/threads=2/lookahead_threads=1/sliced_threads=0/nr=0/decimate=1/interlaced=0/bluray_compat=0/constrained_intra=0/bframes=0/weightp=0/keyint=200/keyint_min=20/scenecut=40/intra_refresh=0/rc_lookahead=60/rc=crf/mbtree=1/crf=26.0/qcomp=0.60/qpmin=0/qpmax=69/qpstep=4/ip_ratio=1.40/aq=1: 0.60
    Default : Yes
    Forced : No
    Audio
    ID : 2
    Format : AC-3
    Format/Info : Audio Coding 3
    Format settings, Endianness : Big
    Codec ID : A_AC3
    Duration : 14 min 13 s
    Bit rate mode : Constant
    Bit rate : 128 kb/s
    Channel(s) : 2 channels
    Channel positions : Front: L R
    Sampling rate : 32.0 kHz
    Frame rate : 20.833 FPS (1536 SPF)
    Bit depth : 16 bits
    Compression mode : Lossy
    Stream size : 13.0 MiB (7%)
    Service kind : Complete Main
    Default : Yes
    Forced : No


    Онлайн видео Защитники снов



    Защитники снов/Dream Corps (2017) WEB-DLRip [H.264/720p-LQ] (сезон 1, серии 1-10 из 52) [Обновляемая]
    загрузка...
    Рейтинг →
     (голосов: 1, оценка 4/5, голосовать можно 1 раз )

    Другие торренты по теме:

  • Роман Злотников, Антон Корнилов | Защитники людей (2015) [FB2]
  • Королевские Защитники 1.2.8 [Ru] скачать через торрент бесплатно
  • Защитники (2016) WEBRip [1080p] [Тизер] скачать через торрент бесплатно
  • Защитники (2015-2016) HDRip [H.264 / 720p-LQ] (сезон 1, серии 01-02) скачать через торрент бесплатно
  • Специальный корреспондент. Защитники человечества (2016.02.24) SATRip
  • Защитники (2017) WEBRip [H.264 / 1080p] [Трейлер]
  • Защитники (2017) WEBRip [H.264 / 1080p-LQ] [Фрагмент]
  • Защитники (2017) WEBRip [H.264 / 1080p] [Трейлер]


    • Комментарии (0):

      Информация

      Информация

        Посетители, находящиеся в группе Гости, не могут оставлять комментарии в данной новости.

        ↓ Меню




        ↓ Опрос

        Вы добавили сайт в закладки?
        Да
        Нет


        Top 10 за месяц (Мультфильмы)