.
Авторизация | Регистрация
Хочешь лучшие торренты? Добавь свой email!
Добавить

Торрент скачать бесплатно

» » Ван Пис 3D: Погоня за соломенной шляпой / One Piece 3D: Mugiwara cheisu (2011) BDRip 3D [H.264 / 1080p] [Вертикальная анаморфная стереопара] торрент скачать бесплатно




    Ван Пис 3D: Погоня за соломенной шляпой / One Piece 3D: Mugiwara cheisu (2011) BDRip 3D [H.264 / 1080p] [Вертикальная анаморфная стереопара] торрент скачать бесплатно

    Опубликовал: Админ | Дата: 19-11-2017, 05:00 | Просмотров: 0

    Производство: Япония/Toei Animation
    Жанр: мультфильм, короткометражка
    Режиссер: Хироюки Сато

    Актеры
    Хирата Хироаки, Юити Нагасима, Кадзуя Накаи, Акэми Окамура, Маюми Танака, Каппэи Ямагути, Томомицу Ямагути, Юрико Ямагути, Яо Кадзуки, Икуэ Отани

    Описание

    Сюжет фильма повествует о том, как у Луффи украли его соломенную шляпу и о ее поисках.

    Дата мировой премьеры: 19 марта 2011
    Релиз от: NNM-Club, RG Всё лучшее - детям!
    Продолжительность: 00: 30: 57
    Качество видео: BDRip 3D
    Перевод: Многоголосый закадровый, любительский/2x Одноголосый закадровый, любительский
    Субтитры: Русские - Полные (Вшитые отключаемые, отдельным файлом), Английский - Полные (Вшитые отключаемые)
    Видео: AVC/H.264, 1920x1080, ~15, 9 Мбит/сек
    Аудио 1: AC3 5.1 640 Кбит/сек - Русский (MVO-AnimeSpace Team)
    Аудио 2: AC3 5.1 640 Кбит/сек - Русский (VO-Persona99)
    Аудио 3: AC3 5.1 640 Кбит/сек - Русский (VO-RainDeath)
    Аудио 4: AC3 5.1 640 Кбит/сек - Японский

    Общее
    Уникальный идентификатор : 228479832450088524337524176893329104157 (0xABE39D77389D5B02BDA68BA3A87D5D1D)
    Полное имя : K: tempOne_Piece_3D_Mugiwara_ChaseOne_Piece_3D_Mugiwara_Chase.mkv
    Формат : Matroska
    Версия формата : Version 2
    Размер файла : 4, 07 Гбайт
    Продолжительность : 30 м. 57 с.
    Общий поток : 18, 8 Мбит/сек
    Название фильма : One_Piece_3D_Mugiwara_Chase_Half_O/U
    Дата кодирования : UTC 2017-11-18 17: 05: 25
    Программа кодирования : mkvmerge v5.8.0 (\'No Sleep/Pillow\') built on Sep 2 2012 15: 37: 04
    Библиотека кодирования : libebml v1.2.3 + libmatroska v1.3.0
    Видео
    Идентификатор : 1
    Формат : AVC
    Формат/Информация : Advanced Video Codec
    Профиль формата : High@L4.1
    Параметр CABAC формата : Да
    Параметр ReFrames формата : 4 кадра
    Идентификатор кодека : V_MPEG4/ISO/AVC
    Продолжительность : 30 м. 57 с.
    Битрейт : 15, 9 Мбит/сек
    Ширина : 1920 пикселей
    Высота : 1080 пикселей
    Соотношение сторон : 16: 9
    Режим частоты кадров : Постоянный
    Частота кадров : 23, 976 (24000/1001) кадра/сек
    Цветовое пространство : YUV
    Субдискретизация насыщенности : 4: 2: 0
    Битовая глубина : 8 бит
    Тип развёртки : Прогрессивная
    Бит/(Пиксели*Кадры) : 0.320
    Размер потока : 3, 44 Гбайт (84%)
    Заголовок : rip by I/N
    Библиотека кодирования : x264 core 148 r2744 b97ae06
    Настройки программы : cabac=1/ref=4/deblock=1: -3: -3/analyse=0x3: 0x133/me=umh/subme=10/psy=1/psy_rd=1.00: 0.15/mixed_ref=1/me_range=64/chroma_me=1/trellis=2/8x8dct=1/cqm=0/deadzone=21, 11/fast_pskip=0/chroma_qp_offset=-3/threads=12/lookahead_threads=3/sliced_threads=0/nr=0/decimate=1/interlaced=0/bluray_compat=0/constrained_intra=0/bframes=16/b_pyramid=2/b_adapt=2/b_bias=0/direct=3/weightb=1/open_gop=0/weightp=2/keyint=250/keyint_min=23/scenecut=40/intra_refresh=0/rc_lookahead=60/rc=crf/mbtree=1/crf=15.0/qcomp=0.60/qpmin=0/qpmax=69/qpstep=4/vbv_maxrate=40000/vbv_bufsize=30000/crf_max=0.0/nal_hrd=none/filler=0/frame-packing=4/ip_ratio=1.40/aq=1: 1.00
    Default : Да
    Forced : Нет
    Цветовой диапазон : Limited
    Основные цвета : BT.709
    Характеристики трансфера : BT.709
    Коэффициенты матрицы : BT.709
    Аудио #1
    Идентификатор : 2
    Формат : AC-3
    Формат/Информация : Audio Coding 3
    Параметр Endianness формата : Big
    Идентификатор кодека : A_AC3
    Продолжительность : 30 м. 57 с.
    Вид битрейта : Постоянный
    Битрейт : 640 Кбит/сек
    Каналы : 6 каналов
    Расположение каналов : Front: L C R, Side: L R, LFE
    Частота : 48, 0 КГц
    Частота кадров : 31, 250 кадров/сек (1536 spf)
    Битовая глубина : 16 бит
    Метод сжатия : С потерями
    Размер потока : 142 Мбайт (3%)
    Заголовок : DVO - AnimeSpace Team
    Язык : Russian
    ServiceKind/String : Complete Main
    Default : Да
    Forced : Нет
    Аудио #2
    Идентификатор : 3
    Формат : AC-3
    Формат/Информация : Audio Coding 3
    Параметр Endianness формата : Big
    Идентификатор кодека : A_AC3
    Продолжительность : 30 м. 57 с.
    Вид битрейта : Постоянный
    Битрейт : 640 Кбит/сек
    Каналы : 6 каналов
    Расположение каналов : Front: L C R, Side: L R, LFE
    Частота : 48, 0 КГц
    Частота кадров : 31, 250 кадров/сек (1536 spf)
    Битовая глубина : 16 бит
    Метод сжатия : С потерями
    Размер потока : 142 Мбайт (3%)
    Заголовок : VO - Persona99
    Язык : Russian
    ServiceKind/String : Complete Main
    Default : Нет
    Forced : Нет
    Аудио #3
    Идентификатор : 4
    Формат : AC-3
    Формат/Информация : Audio Coding 3
    Параметр Endianness формата : Big
    Идентификатор кодека : A_AC3
    Продолжительность : 30 м. 57 с.
    Вид битрейта : Постоянный
    Битрейт : 640 Кбит/сек
    Каналы : 6 каналов
    Расположение каналов : Front: L C R, Side: L R, LFE
    Частота : 48, 0 КГц
    Частота кадров : 31, 250 кадров/сек (1536 spf)
    Битовая глубина : 16 бит
    Метод сжатия : С потерями
    Размер потока : 142 Мбайт (3%)
    Заголовок : VO - RainDeath
    Язык : Russian
    ServiceKind/String : Complete Main
    Default : Нет
    Forced : Нет
    Аудио #4
    Идентификатор : 5
    Формат : AC-3
    Формат/Информация : Audio Coding 3
    Параметр Endianness формата : Big
    Идентификатор кодека : A_AC3
    Продолжительность : 30 м. 57 с.
    Вид битрейта : Постоянный
    Битрейт : 640 Кбит/сек
    Каналы : 6 каналов
    Расположение каналов : Front: L C R, Side: L R, LFE
    Частота : 48, 0 КГц
    Частота кадров : 31, 250 кадров/сек (1536 spf)
    Битовая глубина : 16 бит
    Метод сжатия : С потерями
    Размер потока : 142 Мбайт (3%)
    Заголовок : Original
    Язык : Japanese
    ServiceKind/String : Complete Main
    Default : Нет
    Forced : Нет
    Текст #1
    Идентификатор : 6
    Формат : UTF-8
    Идентификатор кодека : S_TEXT/UTF8
    Идентификатор кодека/Информация : UTF-8 Plain Text
    Заголовок : Full - OnePiece.ru
    Язык : Russian
    Default : Да
    Forced : Нет
    Текст #2
    Идентификатор : 7
    Формат : UTF-8
    Идентификатор кодека : S_TEXT/UTF8
    Идентификатор кодека/Информация : UTF-8 Plain Text
    Заголовок : Full - Hatsuyuki (Script v2)
    Язык : English
    Default : Нет
    Forced : Нет
    Меню
    00: 00: 00.000 : en: 1 - 0: 00: 00
    00: 04: 06.079 : en: 2 - 0: 04: 06
    00: 07: 18.062 : en: 3 - 0: 07: 18
    00: 14: 19.149 : en: 4 - 0: 14: 19
    00: 23: 17.312 : en: 5 - 0: 23: 17
    00: 29: 10.749 : en: 6 - 0: 29: 11


    Онлайн видео Ван Пис 3D: Погоня за соломенной шляпой



    Ван Пис 3D: Погоня за соломенной шляпой/One Piece 3D: Mugiwara cheisu (2011) BDRip 3D [H.264/1080p] [Вертикальная анаморфная стереопара]
    загрузка...
    Рейтинг →
     (голосов: 1, оценка 4/5, голосовать можно 1 раз )

    Другие торренты по теме:

  • Погоня (1965) SATRip [H.264] скачать через торрент бесплатно
  • Погоня за ледниками / Chasing Ice (2012) BDRip [720p] [hand made 60fps] скачать через торрент бесплатно
  • Погоня за Бенджи / Benji the Hunted (1987) DVD5 скачать через торрент бесплатно
  • Погоня за Бенджи / Benji the Hunted (1987) WEB-DL [H.264 / 720p-LQ] скачать через торрент бесплатно
  • Григорий Поженян | Погоня (1983) [PDF] скачать через торрент бесплатно
  • Погоня за красотой / Bad Hair Day (2015) WEBRip скачать через торрент бесплатно
  • Погоня за красотой / Bad Hair Day (2015) WEBRip скачать через торрент бесплатно
  • Погоня за красотой / Bad Hair Day (2015) WEBRip [H.264] скачать через торрент бесплатно


    • Комментарии (0):

      Информация

      Информация

        Посетители, находящиеся в группе Гости, не могут оставлять комментарии в данной новости.

        ↓ Меню




        ↓ Опрос

        Вы добавили сайт в закладки?
        Да
        Нет


        Top 10 за месяц (Мультфильмы)