.
Авторизация | Регистрация
Хочешь лучшие торренты? Добавь свой email!
Добавить

Торрент скачать бесплатно

» » Южный Парк / South Park (2017) HDTVRip [H.264 / 1080p-LQ] (21 сезон, серия 01-08 из 10) торрент скачать бесплатно




    Южный Парк / South Park (2017) HDTVRip [H.264 / 1080p-LQ] (21 сезон, серия 01-08 из 10) торрент скачать бесплатно

    Опубликовал: Админ | Дата: 19-11-2017, 05:00 | Просмотров: 0

    Производство: США
    Жанр: Для взрослых, Комедия
    Режиссер: Трей Паркер, Эрик Сточ, Мэтт Стоун

    Актеры
    Трей Паркер, Мэтт Стоун, Мона Маршалл, Эйприл Стюарт, Айзек Хейз, Элиза Шнайдер, Эдриан Бирд, Мэри Кэй Бергман, Дженнифер Хауэлл, Кайл Маккаллок и др.

    Описание

    Южный Парк/South Park — американский мультсериал, созданный Мэттом Стоуном и Треем Паркером. Иногда название переводится также как Саут-Парк или Саус-Парк. Выпускается кабельным телеканалом Comedy Central с 1997 года. Основу сюжета составляют приключения четырёх мальчиков и их друзей, живущих в маленьком городке Саут-Парк, штат Колорадо. Сериал высмеивает недостатки американской культуры и текущие мировые события, а также подвергает критике множество глубоких убеждений и табу посредством пародии и чёрного юмора. Южный Парк выходит поздно вечером и позиционируется как мультфильм для взрослых.

    Возраст: 18+ (зрителям, достигшим 18 лет. запрещено для детей)
    Рейтинг MPAA: R (лицам до 17 лет обязательно присутствие взрослого)
    Релиз от: Bugman
    Продолжительность: 08x 00: 22: 10
    Качество видео: HDTVRip H.264/1080p-LQ
    Перевод: Многоголосый, Двухголосый, Одноголосый
    Озвучка: MVO Jaskier, MVO IdeaFilm, DVO Sunshine Studio, VO L0cDoG
    Субтитры: Отсутствуют
    Реклама: Вырезана
    Присутствует ненормативная лексика
    Видео: AVC/H.264, 1920x1080, ~4000 Kbps
    Аудио#1: AC3, 2 ch, ~192kbps, CBR (MVO Jaskier)
    Аудио#2: AC3, 2 ch, ~192kbps, CBR (MVO IdeaFilm)
    Аудио#3: AC3, 2 ch, ~192kbps, CBR (DVO Sunshine Studio)
    Аудио#4: AC3, 2 ch, ~192kbps, CBR (VO L0cDoG)
    Аудио#5: AAC, 2 ch, ~160kbps (Eng)
    01.White People Renovating Houses
    02. Put It Down
    03. Holiday Special
    04. Franchise Prequel
    05. Hummels Heroin
    06. Sons A Witches
    07. Doubling Down
    08. Moss Piglets
    09.
    10.
    Код: выделить все

    General
    Complete name : South.Park.S21.1080p.HDTVRip.H.264South.Park.S21E04.1080p.HDTVRip.x264.mkv
    Format : Matroska
    Format version : Version 2
    File size : 821 MiB
    Duration : 21 min 40 s
    Overall bit rate : 5 293 kb/s
    Encoded date : UTC 2017-11-14 21:55:57
    Writing application : mkvmerge v7.8.0 (\'River Man\') 32bit built on Apr 3 2015 12:11:22
    Writing library : libebml v1.3.1 + libmatroska v1.4.2
    Video
    ID : 1
    Format : AVC
    Format/Info : Advanced Video Codec
    Format profile :High@L4.1
    Format settings, CABAC : Yes
    Format settings, RefFrames : 4 frames
    Codec ID : V_MPEG4/ISO/AVC
    Duration : 21 min 40 s
    Bit rate : 4 035 kb/s
    Width : 1 920 pixels
    Height : 1 080 pixels
    Display aspect ratio : 16:9
    Frame rate mode : Constant
    Frame rate : 23.976 (24000/1001) FPS
    Color space : YUV
    Chroma subsampling : 4:2:0
    Bit depth : 8 bits
    Scan type : Progressive
    Bits/(Pixel*Frame) : 0.081
    Stream size : 626 MiB (76%)
    Writing library : x264 core 152 r2851 ba24899
    Encoding settings : cabac=1/ref=4/deblock=1:-3:-3/analyse=0x3:0x133/me=umh/subme=9/psy=1/psy_rd=1.00:0.00/mixed_ref=1/me_range=16/chroma_me=1/trellis=2/8x8dct=1/cqm=0/deadzone=21, 11/fast_pskip=1/chroma_qp_offset=-2/threads=16/lookahead_threads=1/sliced_threads=0/nr=0/decimate=1/interlaced=0/bluray_compat=0/constrained_intra=0/bframes=3/b_pyramid=2/b_adapt=2/b_bias=0/direct=3/weightb=1/open_gop=0/weightp=2/keyint=230/keyint_min=22/scenecut=40/intra_refresh=0/rc_lookahead=60/rc=crf/mbtree=1/crf=17.0/qcomp=0.60/qpmin=10/qpmax=51/qpstep=4/vbv_maxrate=17500/vbv_bufsize=17500/crf_max=0.0/nal_hrd=none/filler=0/ip_ratio=1.40/aq=1:1.00
    Language : English
    Default : Yes
    Forced : No
    Color range : Limited
    Matrix coefficients : BT.709
    Audio #1
    ID : 2
    Format : AC-3
    Format/Info : Audio Coding 3
    Format settings, Endianness : Big
    Codec ID : A_AC3
    Duration : 21 min 40 s
    Bit rate mode : Constant
    Bit rate : 192 kb/s
    Channel(s) : 2 channels
    Channel positions : Front: L R
    Sampling rate : 48.0 kHz
    Frame rate : 31.250 FPS (1536 SPF)
    Bit depth : 16 bits
    Compression mode : Lossy
    Stream size : 29.8 MiB (4%)
    Title : MVO Jaskier
    Language : Russian
    Service kind : Complete Main
    Default : Yes
    Forced : No
    Audio #2
    ID : 3
    Format : AC-3
    Format/Info : Audio Coding 3
    Format settings, Endianness : Big
    Codec ID : A_AC3
    Duration : 21 min 40 s
    Bit rate mode : Constant
    Bit rate : 192 kb/s
    Channel(s) : 2 channels
    Channel positions : Front: L R
    Sampling rate : 48.0 kHz
    Frame rate : 31.250 FPS (1536 SPF)
    Bit depth : 16 bits
    Compression mode : Lossy
    Stream size : 29.8 MiB (4%)
    Title : MVO IdeaFilm
    Language : Russian
    Service kind : Complete Main
    Default : No
    Forced : No
    Audio #3
    ID : 4
    Format : AC-3
    Format/Info : Audio Coding 3
    Format settings, Endianness : Big
    Codec ID : A_AC3
    Duration : 21 min 40 s
    Bit rate mode : Constant
    Bit rate : 192 kb/s
    Channel(s) : 2 channels
    Channel positions : Front: L R
    Sampling rate : 48.0 kHz
    Frame rate : 31.250 FPS (1536 SPF)
    Bit depth : 16 bits
    Compression mode : Lossy
    Stream size : 29.8 MiB (4%)
    Title : DVO Sunshine Studio
    Language : Russian
    Service kind : Complete Main
    Default : No
    Forced : No
    Audio #4
    ID : 5
    Format : AC-3
    Format/Info : Audio Coding 3
    Format settings, Endianness : Big
    Codec ID : A_AC3
    Duration : 21 min 40 s
    Bit rate mode : Constant
    Bit rate : 192 kb/s
    Channel(s) : 2 channels
    Channel positions : Front: L R
    Sampling rate : 48.0 kHz
    Frame rate : 31.250 FPS (1536 SPF)
    Bit depth : 16 bits
    Compression mode : Lossy
    Stream size : 29.8 MiB (4%)
    Title : VO L0cDoG
    Language : Russian
    Service kind : Complete Main
    Default : No
    Forced : No
    Audio #5
    ID : 6
    Format : AC-3
    Format/Info : Audio Coding 3
    Format settings, Endianness : Big
    Codec ID : A_AC3
    Duration : 21 min 40 s
    Bit rate mode : Constant
    Bit rate : 384 kb/s
    Channel(s) : 6 channels
    Channel positions : Front: L C R, Side: L R, LFE
    Sampling rate : 48.0 kHz
    Frame rate : 31.250 FPS (1536 SPF)
    Bit depth : 16 bits
    Compression mode : Lossy
    Stream size : 59.5 MiB (7%)
    Language : English
    Service kind : Complete Main
    Default : No
    Forced : No

    Скриншоты для ознакомления


    Все одноименные релизы в Клубе

    Время раздачи: 24/7


    Онлайн видео Южный Парк



    Южный Парк/South Park (2017) HDTVRip [H.264/1080p-LQ] (21 сезон, серия 01-08 из 10)
    загрузка...
    Рейтинг →
     (голосов: 1, оценка 3/5, голосовать можно 1 раз )

    Другие торренты по теме:

  • Южный Парк / South Park (1997-2010) DVDRip / WebDL (17 сезонов + самые первые серии + полнометражный мультфильм) скачать через торрент бесплатно
  • Южный парк / South park (2013) HDRip [Сезон 17, 10 серий из 10] (Comedy central) скачать через торрент бесплатно
  • Южный парк / South park (2014) HDRip [Сезон 18, 10 серий из 10] (Paramount comedy)
  • Южный парк - сломанный, но целый / South Park - The Fractured but Whole (2016) HDRip [H.264 / 720p-LQ] [Трейлер] скачать через торрент бесплатно
  • Южный Парк / South Park (2015) WEB-DL [H.264 / 720p] (19 сезон, серия 01 из 10) [DVO Кубик в Кубе] скачать через торрент бесплатно
  • Южный Парк / South Park (2015) WEB-DLRip (19 сезон, серия 01 из 10) [DVO Кубик в Кубе] скачать через торрент бесплатно
  • Южный Парк / South Park (2015) HDTVRip [H.264 / 720p-LQ] (19 сезон, серия 01-10 из 10) Jaskier скачать через торрент бесплатно
  • Южный Парк: Полная Коллекция / South Park: Complete Colection (1997-2015) WEB-DLRip [H.264] (сезон 1-19, серии 1-267 из 267) (MTV|Кубик в Кубе) [MP4|1080p] [Rus / Eng Sub]


    • Комментарии (0):

      Информация

      Информация

        Посетители, находящиеся в группе Гости, не могут оставлять комментарии в данной новости.

        ↓ Меню




        ↓ Опрос

        Вы добавили сайт в закладки?
        Да
        Нет


        Top 10 за месяц (Мультфильмы)