.
Авторизация | Регистрация
Хочешь лучшие торренты? Добавь свой email!
Добавить

Торрент скачать бесплатно

» » Кошка Бяка и хороший мальчик (2017) WEB-DLRip [H.264 / 720p-LQ] (серия 1 из 26) [Обновляемая] торрент скачать бесплатно




    Кошка Бяка и хороший мальчик (2017) WEB-DLRip [H.264 / 720p-LQ] (серия 1 из 26) [Обновляемая] торрент скачать бесплатно

    Опубликовал: Админ | Дата: 18-11-2017, 05:00 | Просмотров: 2

    Год выпуска: 2017
    Жанр: Музыкальный обучающий мультсериал для детей от 2 до 7 лет
    Производство: Россия (Анимационная Студия Паровоз)
    Режиссер: Роман Верещак
    Персонажи: Кошка Бяка и хороший мальчик

    Описание

    У одного Хорошего мальчика есть папа, который много работает, мама, которая вкусно готовит, сестра и бабушка - к ней всегда можно приехать. А еще есть рыбка Ира, черепаха Родион, попугай Болтай и кошка Бяка.
    Хороший мальчик каждый день познает мир, и с ним случаются самые невероятные вещи. В этом мультике Хороший мальчик играл в футбол и разбил люстру. Что же сказать маме, ведь она рассердится и накажет его. Может быть сказать, что это рыбка Ира виновата или черепаха Родион? А может попугай Болтай? Нет, это все сделала кошка Бяка. Вот пусть её мама и наказывает. Кого наказала мама, узнаем в мультфильме для детей Кошка Бяка и хороший мальчик
    Релиз от: Natasha77
    Продолжительность: 00: 05: 30 серия
    Качество видео: WEB-DLRip
    Перевод: Не требуется (Русский)
    Субтитры: Отсутствуют
    Видео: AVC/H.264, 1280x720, ~1000 kbps
    Аудио: Русский: AAC, 2 ch, 128 kbps
    Код: выделить все
    General
    Unique ID : 182187039390377258577067613591949393729 (0x890FF28D022AD7AA91AD1DA410C5BF41)
    Complete name : C:1_Футбол.mkv
    Format : Matroska
    Format version : Version 4/Version 2
    File size : 33.9 MiB
    Duration : 5 min 30 s
    Overall bit rate : 863 kb/s
    Encoded date : UTC 2017-11-17 17:10:53
    Writing application : mkvmerge v16.0.0 (\'Protest\') 32-bit
    Writing library : libebml v1.3.5 + libmatroska v1.4.8
    Video
    ID : 1
    Format : AVC
    Format/Info : Advanced Video Codec
    Format profile :Main@L3.1
    Format settings : CABAC/3 Ref Frames
    Format settings, CABAC : Yes
    Format settings, RefFrames : 3 frames
    Codec ID : V_MPEG4/ISO/AVC
    Duration : 5 min 30 s
    Bit rate : 735 kb/s
    Width : 1 280 pixels
    Height : 720 pixels
    Display aspect ratio : 16:9
    Frame rate mode : Constant
    Frame rate : 25.000 FPS
    Color space : YUV
    Chroma subsampling : 4:2:0
    Bit depth : 8 bits
    Scan type : Progressive
    Bits/(Pixel*Frame) : 0.032
    Stream size : 28.9 MiB (85%)
    Default : Yes
    Forced : No
    Color range : Limited
    Color primaries : BT.709
    Transfer characteristics : BT.709
    Matrix coefficients : BT.709
    Audio
    ID : 2
    Format : AAC
    Format/Info : Advanced Audio Codec
    Format profile : LC
    Codec ID : A_AAC-2
    Duration : 5 min 30 s
    Bit rate : 126 kb/s
    Channel(s) : 2 channels
    Channel positions : Front: L R
    Sampling rate : 44.1 kHz
    Frame rate : 43.066 FPS (1024 SPF)
    Compression mode : Lossy
    Stream size : 4.94 MiB (15%)
    Default : Yes
    Forced : No


    Онлайн видео Кошка Бяка и хороший мальчик (2017) WEB-DLRip [H.264



    Кошка Бяка и хороший мальчик (2017) WEB-DLRip [H.264/720p-LQ] (серия 1 из 26) [Обновляемая]
    загрузка...
    Рейтинг →
     (голосов: 1, оценка 4/5, голосовать можно 1 раз )

    Другие торренты по теме:

  • Animal Planet. Адская кошка / My Cat From Hell (2011-2014) TVRip / HDTVRip
  • Кошка Балу / Cat Ballou (1965) DVDRip [H.264] скачать через торрент бесплатно
  • National Geographic. Кошка будущего / Future Cat (2014) HDTVRip [H.264 / 720p]скачать через торрент бесплатно
  • Женщина-кошка / Cat Girl (1957) DVDRemux [EN] скачать через торрент бесплатно
  • Черная кошка Станислава Говорухина (2016) HDTVRip [H.264 / 720p-LQ]
  • Мидас Деккерс | Кошка. История любви (2016) [MP3]
  • Кошка на раскаленной крыше / Cat on a Hot Tin Roof (1958) DVDRip [H.264]
  • Андрей Жвалевский, Евгения Пастернак | Как кошка с собакой (2014) [MP3]


    • Комментарии (0):

      Информация

      Информация

        Посетители, находящиеся в группе Гости, не могут оставлять комментарии в данной новости.

        ↓ Меню




        ↓ Опрос

        Вы добавили сайт в закладки?
        Да
        Нет


        Top 10 за месяц (Мультфильмы)