.
Авторизация | Регистрация
Хочешь лучшие торренты? Добавь свой email!
Добавить

Торрент скачать бесплатно

» » Балерина / Ballerina (2016) BDRip торрент скачать бесплатно




    Балерина / Ballerina (2016) BDRip торрент скачать бесплатно

    Опубликовал: Админ | Дата: 16-11-2017, 05:00 | Просмотров: 0

    Производство: Франция, Канада, Caramel Film, Main Journey, Quad Productions
    Жанр: Мультфильм, мюзикл, комедия, приключения, семейный
    Режиссер: Эрик Саммер, Эрик Уорин, Мими Мэйнард
    В ролях: Элль Фэннинг, Дэйн ДеХаан, Мэдди Зиглер, Карли Рэй Джепсен, Камилль Коттен, Элана Дункельман, Джули Ханер, Кэйси Чейз, Шошана Спелинг, Лорен Морель

    Описание

    События развернутся вокруг маленькой сиротки, которая, следуя за мечтой стать балериной, приезжает в Париж в 1879 году.

    Возраст: 6+ (зрителям, достигшим 6 лет)
    Рейтинг MPAA: PG (рекомендуется присутствие родителей)

    Дата мировой премьеры: 19 октября 2016
    Дата российской премьеры: 26 января 2017, Вольга
    Продолжительность: 01: 29: 06
    Качество видео: BDRip
    Перевод: Дублированный (Лицензия Blu-ray RUS)
    Субтитры: отсутствуют.
    Видео: Xvid, 720х304, ~1891 Kbps
    Аудио: AC3, 6 ch, 448 Kbps

    Ballerina.2016.BDRip.avi
    Формат : AVI
    Формат/Информация : Audio Video Interleave
    Размер файла : 1, 46 Гбайт
    Продолжительность : 1 ч. 29 м.
    Общий поток : 2348 Кбит/сек
    Название фильма : Ballerina.2016.D.BDRip.1.46Gb_ExKinoRay_by_Twi7ter/Ballerina.2016.D.BDRip.1400Mb_ExKinoRay_by_Twi7ter
    Режиссёр : Twi7ter/Twi7ter
    Жанр : Comedy/Adventure/Family/Comedy/Adventure/Family
    Формат оригинала/Имя : Cartoon/Cartoon
    Видео
    Идентификатор : 0
    Формат : MPEG-4 Visual
    Профиль формата : Advanced Simple@L5
    Настройки формата : BVOP2/Custom Matrix
    Параметр BVOP формата : 2
    Параметр QPel формата : Нет
    Параметр GMC формата : Без точки перехода
    Параметр матрицы формата : Выборочная
    Идентификатор кодека : XVID
    Идентификатор кодека/Подсказка : XviD
    Продолжительность : 1 ч. 29 м.
    Битрейт : 1891 Кбит/сек
    Ширина : 720 пикселей
    Высота : 304 пикселя
    Соотношение сторон : 2, 35: 1
    Частота кадров : 24, 000 кадра/сек
    Цветовое пространство : YUV
    Субдискретизация насыщенности : 4: 2: 0
    Битовая глубина : 8 бит
    Тип развёртки : Прогрессивная
    Метод сжатия : С потерями
    Бит/(Пиксели*Кадры) : 0.360
    Размер потока : 1, 18 Гбайт (81%)
    Библиотека кодирования : XviD 73
    Аудио
    Идентификатор : 1
    Формат : AC-3
    Формат/Информация : Audio Coding 3
    Идентификатор кодека : 2000
    Продолжительность : 1 ч. 29 м.
    Вид битрейта : Постоянный
    Битрейт : 448 Кбит/сек
    Каналы : 6 каналов
    Расположение каналов : Front: L C R, Side: L R, LFE
    Частота : 48, 0 КГц
    Частота кадров : 31, 250 кадров/сек (1536 SPF)
    Битовая глубина : 16 бит
    Метод сжатия : С потерями
    Размер потока : 286 Мбайт (19%)
    Выравнивание : Соединение по промежуткам
    Продолжительность промежутка : 42 мс. (1, 00 видеокадр)
    Время предзагрузки промежутка : 512 мс.
    ServiceKind/String : Complete Main

    Скриншоты для ознакомления



    Все одноименные релизы в Клубе
    Время раздачи: 24/7 (до появления первых 3-5 скачавших)


    Онлайн видео Балерина



    Балерина/Ballerina (2016) BDRip
    загрузка...
    Рейтинг →
     (голосов: 1, оценка 3/5, голосовать можно 1 раз )

    Другие торренты по теме:

  • Балерина / Ballerina (2016) TS
  • Балерина / Ballerina (2016) HDRip [EN]
  • Балерина / Ballerina (2016) BDRip [H.264 / 1080p] [Line]
  • Балерина / Ballerina (2016) HDRip [Line]
  • Балерина / Ballerina (2016) BDRip [H.264 / 720p] (Line)
  • Балерина / Ballerina (2016) BDRip [H.264 / 1080p]
  • Балерина / Ballerina (2016) HDRip
  • Балерина / Ballerina (2016) BDRip [H.264 / 720p]


    • Комментарии (0):

      Информация

      Информация

        Посетители, находящиеся в группе Гости, не могут оставлять комментарии в данной новости.

        ↓ Меню




        ↓ Опрос

        Вы добавили сайт в закладки?
        Да
        Нет


        Top 10 за месяц (Мультфильмы)