.
Авторизация | Регистрация
Хочешь лучшие торренты? Добавь свой email!
Добавить

Торрент скачать бесплатно

» » Побег из курятника / Chicken Run (2000) BDRip [H.265 / 1080p] [10-bit] торрент скачать бесплатно




    Побег из курятника / Chicken Run (2000) BDRip [H.265 / 1080p] [10-bit] торрент скачать бесплатно

    Опубликовал: Админ | Дата: 16-11-2017, 05:00 | Просмотров: 0

    Производство: Великобритания, США, Франция/Aardman Animations, DreamWorks SKG, Pathé
    Жанр: Мультфильм, Комедия, Семейный
    Режиссер: Питер Лорд, Ник Парк
    Персонажи: Фил Дэниелс, Линн Фергюсон, Мэл Гибсон, Тони Хейгарт, Джейн Хоррокс, Миранда Ричардсон, Джулия Савалия, Тимоти Сполл, Имелда Стонтон, Бенжамин Уитроу, Джон Шэриан, Джо Аллен

    Описание

    Курочкам на ферме миссис Туиди приходится не легко. Для каждой из этих несчастных птиц любое, даже самое погожее утро, может стать последним: в мгновение ока они могут угодить в суп или стать начинкой для пирожка. Безропотные домашние птички живут в постоянном страхе в ужасных курятниках, напоминающих бараки концлагеря. Все попытки вырваться из страшной фермы на волю оканчиваются провалом. Но однажды на ферме объявился веселый американский петух Рокки.

    Возраст: 0+ (для любой зрительской аудитории)
    Рейтинг MPAA: G (нет возрастных ограничений)
    Релиз от: Goor80
    Продолжительность: 01: 24: 29
    Качество видео: BDRip
    Перевод: Дублированный, Многоголосый закадровый, Одноголосый закадровый x6, Двуголосый закадровый
    Субтитры: русские, английские
    Видео: HEVC/H.265, 1920x1080, ~8386 Kbps
    Аудио 1: AC3, 2 ch, 192 Kbps (русский, дублированный - ОРТ)
    Аудио 2: AC3, 6 ch, 448 Kbps (русский, многоголосый - Премьер Видео Фильм)
    Аудио 3: DTS-ES, 7 ch, 1509 Kbps (английский)
    Аудио 4: DTS-ES, 7 ch, 1509 Kbps (русский, одноголосый - Андрей Гаврилов (отдельным файлом)
    Аудио 5: DTS-ES, 7 ch, 1509 Kbps (русский, одноголосый - Владимир Сонькин (отдельным файлом)
    Аудио 6: DTS-ES, 7 ch, 1509 Kbps (русский, одноголосый - Владимир Яковлев (отдельным файлом)
    Аудио 7: DTS-ES, 7 ch, 1509 Kbps (русский, одноголосый - Дмитрий Пучков (отдельным файлом)
    Аудио 8: DTS-ES, 7 ch, 1509 Kbps (русский, одноголосый - Евгений Гранкин (отдельным файлом)
    Аудио 9: DTS-ES, 7 ch, 1509 Kbps (русский, одноголосый - Юрий Живов (отдельным файлом)
    Аудио 10: DTS-ES, 7 ch, 1509 Kbps (русский, двуголосый - Гланц и Назарова (отдельным файлом)

    Общее
    Уникальный идентификатор : 171254838933296159479572001764939135785 (0x80D67B743AFA027FB7C7A1C3C393FB29)
    Полное имя : E: VideoПобег из Курятника (Chicken Run)Побег из Курятника (Chicken Run).mkv
    Формат : Matroska
    Версия формата : Version 4/Version 2
    Размер файла : 6, 23 Гбайт
    Продолжительность : 1 ч. 24 м.
    Общий поток : 10, 6 Мбит/сек
    Название фильма : Побег из Курятника/Chicken Run
    Дата кодирования : UTC 2017-11-13 04: 50: 07
    Программа кодирования : mkvmerge v15.0.0 (\'Duel with the Devil\') 64-bit
    Библиотека кодирования : libebml v1.3.5 + libmatroska v1.4.5
    Авторское право : Encoded by Goor80
    Released by : Buba5473 for NNM-Club
    Видео
    Идентификатор : 1
    Формат : HEVC
    Формат/Информация : High Efficiency Video Coding
    Профиль формата : Main 10@L4@Main
    Идентификатор кодека : V_MPEGH/ISO/HEVC
    Продолжительность : 1 ч. 24 м.
    Битрейт : 8386 Кбит/сек
    Ширина : 1920 пикселей
    Высота : 1080 пикселей
    Соотношение сторон : 16: 9
    Режим частоты кадров : Постоянный
    Частота кадров : 24, 000 кадра/сек
    Цветовое пространство : YUV
    Субдискретизация насыщенности : 4: 2: 0
    Битовая глубина : 10 бит
    Бит/(Пиксели*Кадры) : 0.168
    Размер потока : 4, 95 Гбайт (79%)
    Default : Да
    Forced : Нет
    Аудио #1
    Идентификатор : 2
    Формат : AC-3
    Формат/Информация : Audio Coding 3
    Параметр Endianness формата : Big
    Идентификатор кодека : A_AC3
    Продолжительность : 1 ч. 24 м.
    Вид битрейта : Постоянный
    Битрейт : 192 Кбит/сек
    Каналы : 2 канала
    Расположение каналов : Front: L R
    Частота : 48, 0 КГц
    Частота кадров : 31, 250 кадров/сек (1536 spf)
    Битовая глубина : 16 бит
    Метод сжатия : С потерями
    Размер потока : 116 Мбайт (2%)
    Заголовок : Перевод: Профессиональный (Полное Дублирование) ОРТ
    Язык : Russian
    ServiceKind/String : Complete Main
    Default : Да
    Forced : Нет
    Аудио #2
    Идентификатор : 3
    Формат : AC-3
    Формат/Информация : Audio Coding 3
    Параметр Endianness формата : Big
    Идентификатор кодека : A_AC3
    Продолжительность : 1 ч. 24 м.
    Вид битрейта : Постоянный
    Битрейт : 448 Кбит/сек
    Каналы : 6 каналов
    Расположение каналов : Front: L C R, Side: L R, LFE
    Частота : 48, 0 КГц
    Частота кадров : 31, 250 кадров/сек (1536 spf)
    Битовая глубина : 16 бит
    Метод сжатия : С потерями
    Размер потока : 271 Мбайт (4%)
    Заголовок : Перевод: Профессиональный (Многоголосный Закадровый) \'Премьер Видео Фильм\' - DVD
    Язык : Russian
    ServiceKind/String : Complete Main
    Default : Нет
    Forced : Нет
    Аудио #3
    Идентификатор : 4
    Формат : DTS
    Формат/Информация : Digital Theater Systems
    Профиль формата : ES Discrete/Core
    Режим : 16
    Параметр Endianness формата : Big
    Идентификатор кодека : A_DTS
    Продолжительность : 1 ч. 24 м.
    Вид битрейта : Постоянный
    Битрейт : 1509 Кбит/сек
    Каналы : 7 каналов/6 каналов
    Расположение каналов : Front: L C R, Side: L R, Back: C, LFE/Front: L C R, Side: L R, LFE
    Частота : 48, 0 КГц
    Частота кадров : 93, 750 кадра/сек (512 spf)
    Битовая глубина : 16 бит
    Метод сжатия : С потерями
    Размер потока : 912 Мбайт (14%)
    Язык : English
    Default : Нет
    Forced : Нет
    Текст #1
    Идентификатор : 5
    Формат : PGS
    Режим смешивания : zlib
    Идентификатор кодека : S_HDMV/PGS
    Идентификатор кодека/Информация : Picture based subtitle format used on BDs/HD-DVDs
    Продолжительность : 1 ч. 23 м.
    Битрейт : 18, 1 Кбит/сек
    ElementCount : 1602
    Размер потока : 10, 8 Мбайт (0%)
    Язык : Russian
    Default : Да
    Forced : Нет
    Текст #2
    Идентификатор : 6
    Формат : PGS
    Режим смешивания : zlib
    Идентификатор кодека : S_HDMV/PGS
    Идентификатор кодека/Информация : Picture based subtitle format used on BDs/HD-DVDs
    Продолжительность : 1 ч. 21 м.
    Битрейт : 25, 7 Кбит/сек
    ElementCount : 1548
    Размер потока : 14, 9 Мбайт (0%)
    Язык : English
    Default : Нет
    Forced : Нет
    XMP
    Xmp.video.FileName : E: VideoПобег из Курятника (Chicken Run)Побег из Курятника (Chicken Run).mkv
    Xmp.video.FileSize : -9.53674e-007
    Xmp.video.MimeType : video/matroska
    Xmp.video.EBMLVersion : 1
    Xmp.video.EBMLReadVersion : 1
    Xmp.video.DocType : matroska
    Xmp.video.DocTypeVersion : 4
    Xmp.video.DocTypeReadVersion : 2
    Xmp.video.TimecodeScale : 0.001
    Xmp.video.MuxingApp : libebml v1.3.5 + libmatroska v1.4.5
    Xmp.video.WritingApp : mkvmerge v15.0.0 (\'Duel with the Devil\') 64-bit
    Xmp.video.Duration : 5069184
    Xmp.video.DateUTC : 532241407
    Xmp.video.Title : Побег из Курятника/Chicken Run
    Xmp.video.TotalStream : 90
    Xmp.video.TrackLacing : No
    Xmp.video.Codec : V_MPEGH/ISO/HEVC
    Xmp.video.FrameRate : 24
    Xmp.video.TrackLang : und
    Xmp.video.Width : 1920
    Xmp.video.Height : 1080
    Xmp.audio.Compressor : A_DTS
    Xmp.audio.DefaultDuration : 10666
    Xmp.audio.TrackLang : rus
    Xmp.video.TrackName : Перевод: ПрофессионаРьный (РњРЅРѕРіРѕРіРѕРосный Закадровый) \'Премьер Видео ФиРСЊРј\' - DVD
    Xmp.audio.SampleRate : 48000
    Xmp.audio.ChannelType : Stereo
    Xmp.audio.DefaultOn : No
    Xmp.audio.BitsPerSample : 16
    Xmp.video.SubTTrackLacing : No
    Xmp.video.SubTCodec : S_HDMV/PGS
    Xmp.video.SubTLang : rus
    Xmp.video.SubTDefaultOn : No
    Xmp.video.AspectRatio : 16: 9
    H.265/HEVC (High Efficiency Video Coding) - это новый стандарт кодирования видео.
    *Рипы в фомате HEVC, в настоящее время не поддерживается большинством аппаратных проигрывателей.
    *Для корректного воспроизведения может потребоваться обновление ПО.
    *Стандарт H.265/HEVC является логическим продолжением стандарта H.264/AVC (Advanced Video Coding), и характеризуется более эффективными алгоритмами сжатия, а также поддержкой высокого разрешения вплоть до 8K UHD (8192x4320). Первая версия стандарта H.265 была опубликована в начале 2013 года.
    Любителям решения из коробки - установить последнюю версию на выбор:
    Media Player Classic - Black Edition (MPC-BE)
    VLC media player
    Daum Pot Player
    GOM Media Player
    Любителям WMP и других плееров, использующих по умолчанию для воспроизведения системные кодеки+сплитеры - установить K-Lite Codec Pack версии 10.1.0 и выше.
    Любимые плееры, не использующии по умолчанию для воспроизведения системные кодеки+сплитеры, нужно перенастроить на использование оных.

    Скриншоты для ознакомления



    Все одноименные релизы в Клубе
    Время раздачи: с 11: 00 до 21: 00 по Новосибирску (UTC +7) (до появления первых 3-5 скачавших)


    Онлайн видео Побег из курятника



    Побег из курятника/Chicken Run (2000) BDRip [H.265/1080p] [10-bit]
    загрузка...
    Рейтинг →
     (голосов: 1, оценка 5/5, голосовать можно 1 раз )

    Другие торренты по теме:

  • Побег из тюрьмы: Финальный побег / Prison Break: The Final Break (2009) BDRip [H.264 / 720p]
  • Побег из тюрьмы: Коллекция / Prison Break: Collection (2005 - 2009) BDRip 720p [Все сезоны + Финальный побег]
  • Пленница. Побег / Flukt (2012) HDRip скачать через торрент бесплатно
  • Побег / La carapate (1978) BDRip [720p]
  • Беломорканал - Побег (2002) [FLAC|Lossless]<Шансон> скачать через торрент бесплатно
  • Лего. Новые хроники Йоды: Побег из храма джедаев / LEGO. The New Yoda Chronicles: Escape from the Jedi Temple (2014) SATRip
  • Побег из Шоушенка / The Shawshank Redemption (1994) BDRip [H.264] скачать через торрент бесплатно
  • Побег из Шоушенка / The Shawshank Redemption (1994) BDRip [1080p] скачать через торрент бесплатно


    • Комментарии (0):

      Информация

      Информация

        Посетители, находящиеся в группе Гости, не могут оставлять комментарии в данной новости.

        ↓ Меню




        ↓ Опрос

        Вы добавили сайт в закладки?
        Да
        Нет


        Top 10 за месяц (Мультфильмы)