.
Авторизация | Регистрация
Хочешь лучшие торренты? Добавь свой email!
Добавить

Торрент скачать бесплатно

» » Love Live! The School Idol Movie | Живая любовь! (фильм) [2015, MV, 1] BDrip 1080p 10bit raw торрент скачать бесплатно




    Love Live! The School Idol Movie | Живая любовь! (фильм) [2015, MV, 1] BDrip 1080p 10bit raw торрент скачать бесплатно

    Опубликовал: Админ | Дата: 15-11-2017, 05:00 | Просмотров: 0

    Жанр: музыкальный, повседневность
    Тип: полнометражный фильм
    Продолжительность: 105 мин.
    Премьера: 13.06.2015
    Cтудия: Cтудия:
    Автор оригинала: Кимино Сакурако/Kimino Sakurako/公野櫻子
    Режиссер: Кёгоку Такахико/Kyougoku Takahiko/京極尚彦
    Ссылки: World-Art, ANN, Ani-DB, MAL

    Описание

    Сюжет фильма разворачивается во времена, следующие после событий второго сезон любимого сериалаа, на церемонии вручения дипломов третьегодкам. Зная, что выпускной влечёт за собой завершение существования группы школьных идолов, девять девочек-идолов решают прогуляться вокруг школы, хранящей множество воспоминаний. Но, покидая ворота школы, они получают сообщение на электронную почту, которое может стать началом новой истории идол-группы.
    Источник: © shikimori
    Качество видео: BDrip
    Видео: x264, High10@L5.1, 1920x1080, 23, 976 кадра/сек, ~8745 Kбит/сек
    Аудио: FLAC, 2 канала, 48 KГц, 24 бит
    Язык озвучки: Японский
    Cубтитры: русские (подключаемые)
    Перевод: YakuSub Studio


    Скриншоты для ознакомления

    Общее
    Уникальный идентификатор : 251701866832518281393026715729926161827 (0xBD5C04283EBF12598EF2A212344E05A3)
    Полное имя : P: Love Live! The School Idol Movie (BD 1920x1080 FLAC)Kantai Love Live! The School Idol Movie (BD 1920x1080 FLAC) 11A14064.mkv
    Формат : Matroska
    Версия формата : Version 4/Version 2
    Размер файла : 7, 10 Гбайт
    Продолжительность : 1 ч. 39 м.
    Режим общего битрейта : Переменный
    Общий поток : 10, 2 Мбит/сек
    Дата кодирования : UTC 2016-12-15 20: 26: 36
    Программа кодирования : mkvmerge v8.3.0 (\'Over the Horizon\') 32bit
    Библиотека кодирования : libebml v1.3.1 + libmatroska v1.4.2
    Attachments : Caramella_Regular.ttf/Champagne Limousines Bold.ttf/FOT-HummingStd-B.otf/FOT-SkipStd-B.otf/KGFallForYou.ttf/Rosario-Bold.otf/Rosario-BoldItalic.otf/ARIALUNI.TTF/BAARS.TTF/BABYCAKE.ttf/Brush Strokes.ttf
    Видео
    Идентификатор : 2
    Формат : AVC
    Формат/Информация : Advanced Video Codec
    Профиль формата : High10@L5.1
    Параметр CABAC формата : Да
    Параметр ReFrames формата : 16 кадров
    Идентификатор кодека : V_MPEG4/ISO/AVC
    Продолжительность : 1 ч. 39 м.
    Битрейт : 8745 Кбит/сек
    Ширина : 1920 пикселей
    Высота : 1080 пикселей
    Соотношение сторон : 16: 9
    Режим частоты кадров : Постоянный
    Частота кадров : 23, 976 (24000/1001) кадра/сек
    Цветовое пространство : YUV
    Субдискретизация насыщенности : 4: 2: 0
    Битовая глубина : 10 бит
    Тип развёртки : Прогрессивная
    Бит/(Пиксели*Кадры) : 0.176
    Размер потока : 6, 08 Гбайт (86%)
    Библиотека кодирования : x264 core 148 r2692kMod 64f4e24
    Настройки программы : cabac=1/ref=16/deblock=1: 0: 0/analyse=0x3: 0x133/me=umh/subme=10/psy=1/fade_compensate=1.00/psy_rd=0.80: 0.00/mixed_ref=1/me_range=24/chroma_me=1/trellis=2/8x8dct=1/cqm=0/deadzone=21, 11/fast_pskip=0/chroma_qp_offset=-2/threads=12/lookahead_threads=2/sliced_threads=0/nr=0/decimate=0/interlaced=0/bluray_compat=0/constrained_intra=0/fgo=0/bframes=8/b_pyramid=2/b_adapt=2/b_bias=0/direct=3/weightb=1/open_gop=0/weightp=2/keyint=240/keyint_min=23/scenecut=40/intra_refresh=0/rc_lookahead=60/rc=crf/mbtree=1/crf=14.0000/qcomp=0.60/qpmin=0/qpmax=81/qpstep=4/ip_ratio=1.40/aq=3: 0.80
    Язык : English
    Default : Да
    Forced : Нет
    Цветовой диапазон : Limited
    Коэффициенты матрицы : BT.709
    Аудио
    Идентификатор : 1
    Формат : FLAC
    Формат/Информация : Free Lossless Audio Codec
    Идентификатор кодека : A_FLAC
    Продолжительность : 1 ч. 39 м.
    Вид битрейта : Переменный
    Битрейт : 1390 Кбит/сек
    Каналы : 2 канала
    Расположение каналов : Front: L R
    Частота : 48, 0 КГц
    Частота кадров : 11, 719 кадров/сек (4096 spf)
    Битовая глубина : 24 бит
    Размер потока : 993 Мбайт (14%)
    Библиотека кодирования : libFLAC 1.2.1 (UTC 2007-09-17)
    Default : Да
    Forced : Нет
    Текст
    Идентификатор : 3
    Формат : ASS
    Идентификатор кодека : S_TEXT/ASS
    Идентификатор кодека/Информация : Advanced Sub Station Alpha
    Продолжительность : 1 ч. 38 м.
    Битрейт : 14, 0 Кбит/сек
    Count of elements : 33222
    Метод сжатия : Без потерь
    Размер потока : 9, 90 Мбайт (0%)
    Заголовок : Kantai
    Язык : English
    Default : Да
    Forced : Нет
    Меню
    00: 00: 00.033 : en: Intro/en: Prologue
    00: 05: 32.340 : en: Part A
    00: 22: 46.940 : en: Hello, Hoshi wo Kazoete
    00: 24: 20.330 : en: Part B
    00: 35: 18.070 : en: Angelic Angel
    00: 37: 40.030 : en: Part C
    00: 43: 33.400 : en: ?←HEARTBEAT
    00: 45: 04.490 : en: Part D
    01: 11: 50.900 : en: Future style
    01: 13: 21.770 : en: Part E
    01: 26: 58.090 : en: SUNNY DAY SONG
    01: 31: 47.580 : en: Part F
    01: 34: 34.200 : en: Bokutachi wa Hitotsu no Hikari


    Онлайн видео Love Live! The School Idol Movie



    Love Live! The School Idol Movie | Живая любовь! (фильм) [2015, MV, 1] BDrip 1080p 10bit raw
    загрузка...
    Рейтинг →
     (голосов: 1, оценка 5/5, голосовать можно 1 раз )

    Другие торренты по теме:

  • Love Live! 2: School Idol Project / Love Live! 2 / Живая Любовь! Проект Школьный Идол (ТВ-2) [2014, TV, 13 ep] BDRip Hi10p 720p Raw+Rus скачать через торрент бесплатно
  • Love Live! School Idol Project (2014) / Love Live! 2 / Живая Любовь! Проект "Школьный Идол" [2014, TV, 13] BDrip 1080p Hi10p raw скачать через торрент бесплатно
  • Julien Dore - Love Live (2015) [FLAC|tracks|WEB-DL]<Pop, Chanson> скачать через торрент бесплатно
  • Love Live! School Idol Project: Discography (2013-2015) [FLAC|tracks] <75CD-PV+OP+ED+OST+RP+Drama+Character Song> скачать через торрент бесплатно
  • Love Live! School Idol Project: Discography (2013-2015) [MP3|320 kbps] <75CD-PV+OP+ED+OST+RP+Drama+Character Song> скачать через торрент бесплатно
  • Love Live! School Idol Project: Discography (2013-2015) [MP3|320 kbps] <91CD-PV+OP+ED+OST+RP+Drama+Character Song>
  • Love Live! Sunshine!! / Живая любовь! Сияние!! [ТВ-3] [2016, TV, 13] WEB-DL 1080p raw
  • Love Live! Sunshine!! / Живая любовь! Сияние!! [ТВ-3] [2016, TV, 13] BDRip 1080p raw


    • Комментарии (0):

      Информация

      Информация

        Посетители, находящиеся в группе Гости, не могут оставлять комментарии в данной новости.

        ↓ Меню




        ↓ Опрос

        Вы добавили сайт в закладки?
        Да
        Нет


        Top 10 за месяц (Мультфильмы)