.
Авторизация | Регистрация
Хочешь лучшие торренты? Добавь свой email!
Добавить

Торрент скачать бесплатно

» » Отель Трансильвания / Hotel Transylvania (2017) WEB-DLRip (серии 1-8 из 29) (Обновляемая) торрент скачать бесплатно




    Отель Трансильвания / Hotel Transylvania (2017) WEB-DLRip (серии 1-8 из 29) (Обновляемая) торрент скачать бесплатно

    Опубликовал: Админ | Дата: 14-11-2017, 05:00 | Просмотров: 0

    Производство: США, Канада | Sony Pictures Animation, Corus Entertainment
    Жанр: Фентези, комедия, семейный, мультсериал
    Режиссер: Робин Бадд

    Актеры
    Брин МакОли, Эвани Розен, Гейдж Манро, Хосеф Мотики, Дэн Чэмерой, Дэвид Берни, Джон МакГрат, Дайан Салема, Хуан Чайоран, Скотт МакКорд

    Описание

    Мэвис — наследница графа Дракулы — беззаботно проводила время, пока однажды ее отец не уехал в длительное путешествие. Он поручил управление семейным отелем своей юной дочке и грозной сестре Лидии. Новое важное задание — отличный шанс для Мэвис доказать строгому папе, что она может быть ответственной и справляться с любимыми трудностями!

    Возраст: 12+ (зрителям, достигшим 12 лет)
    Дата мировой премьеры: 25 июня 2017
    Дата российской премьеры: 31 октября 2017
    Продолжительность: ~00: 11: 00 серия
    Качество видео: WEB-DLRip
    Перевод: Дублированный
    Озвучка/Автор перевода: Невафильм
    Субтитры: Отсутствуют
    Видео: Xvid, 720x400 (16: 9), ~1501 kbps, 23.976 fps
    Аудио: AC3, 2 ch, 192 Kbps, 48.0 kHz

    General
    Complete name : D: 1_ENGLISHHotel_Transylvania_S01_WEB-DLRip_400pHotel.Transylvania.The.Series.S01E01E02.avi
    Format : AVI
    Format/Info : Audio Video Interleave
    File size : 276 MiB
    Duration : 22 min 41 s
    Overall bit rate : 1 702 kb/s
    Writing application : VirtualDubMod 1.5.10.3 |www.virtualdub-fr.org|| (build 2550/release)
    Writing library : VirtualDubMod build 2550/release
    Video
    ID : 0
    Format : MPEG-4 Visual
    Format profile : Advanced Simple@L5
    Format settings, BVOP : 1
    Format settings, QPel : No
    Format settings, GMC : No warppoints
    Format settings, Matrix : Default (H.263)
    Codec ID : XVID
    Codec ID/Hint : XviD
    Duration : 22 min 41 s
    Bit rate : 1 501 kb/s
    Width : 720 pixels
    Height : 400 pixels
    Display aspect ratio : 16: 9
    Frame rate : 23.976 (24000/1001) FPS
    Color space : YUV
    Chroma subsampling : 4: 2: 0
    Bit depth : 8 bits
    Scan type : Progressive
    Compression mode : Lossy
    Bits/(Pixel*Frame) : 0.217
    Stream size : 244 MiB (88%)
    Writing library : XviD 1.2.1 (UTC 2008-12-04)
    Audio
    ID : 1
    Format : AC-3
    Format/Info : Audio Coding 3
    Format settings, Endianness : Big
    Codec ID : 2000
    Duration : 22 min 41 s
    Bit rate mode : Constant
    Bit rate : 192 kb/s
    Channel(s) : 2 channels
    Channel positions : Front: L R
    Sampling rate : 48.0 kHz
    Frame rate : 31.250 FPS (1536 spf)
    Bit depth : 16 bits
    Compression mode : Lossy
    Stream size : 31.2 MiB (11%)
    Alignment : Split accross interleaves
    Interleave, duration : 42 ms (1.00 video frame)
    Interleave, preload duratio : 500 ms
    Service kind : Complete Main


    Онлайн видео Отель Трансильвания



    Отель Трансильвания/Hotel Transylvania (2017) WEB-DLRip (серии 1-8 из 29) (Обновляемая)
    загрузка...
    Рейтинг →
     (голосов: 1, оценка 4/5, голосовать можно 1 раз )

    Другие торренты по теме:

  • Отель "У погибшего альпиниста" (1979) DVDRip [H.264] скачать через торрент бесплатно
  • Отель «Руанда» / Hotel Rwanda (2004) BDRemux [1080p]
  • Отель "У погибшего альпиниста" (1979) DVDRip [H.264] скачать через торрент бесплатно
  • Калифорнийский отель / California Suite (1978) DVDRip [H.264]
  • Аркадий и Борис Стругацкие | Отель У погибшего альпиниста (2013) [m4b|AAC] скачать через торрент бесплатно
  • Отель «Гранд Будапешт» / The Grand Budapest Hotel (2014) BDRemux [1080p] скачать через торрент бесплатно
  • Haunted Hotel 8: Eternity / Проклятый отель 8: Вечность (2015) [Ru] Unofficial [Collectors Edition / Коллекционное издание] скачать через торрент бесплатно
  • Отель «Мэриголд». Заселение продолжается / The Second Best Exotic Marigold Hotel (2015) HDRip [Звук с TS] скачать через торрент бесплатно


    • Комментарии (0):

      Информация

      Информация

        Посетители, находящиеся в группе Гости, не могут оставлять комментарии в данной новости.

        ↓ Меню




        ↓ Опрос

        Вы добавили сайт в закладки?
        Да
        Нет


        Top 10 за месяц (Мультфильмы)