.
Авторизация | Регистрация
Хочешь лучшие торренты? Добавь свой email!
Добавить

Торрент скачать бесплатно

» » Ванька (1959) HDTVRip [H.264 / 1080p-LQ] торрент скачать бесплатно




    Ванька (1959) HDTVRip [H.264 / 1080p-LQ] торрент скачать бесплатно

    Опубликовал: Админ | Дата: 14-11-2017, 05:00 | Просмотров: 0

    Производство: СССР
    Жанр: Короткометражный, детский
    Режиссер: Эдуард Бочаров

    Актеры
    Саша Барсов, Николай Никитич, Николай Плотников, Нонна Мордюкова, Петр Алейников, Владимир Борискин, Георгий Бударов, Алевтина Румянцева, Николай Сморчков, Ксения Козьмина

    Описание

    O том, как 9-летний мальчик Ванька Жуков в письме к дедушке жалуется на свою тяжелую жизнь…

    Возраст: 6+ (зрителям, достигшим 6 лет)
    Продолжительность: 00: 30: 18
    Качество видео: HDTVRip
    Видео: AVC/H.264, 1440x1080 (4: 3), ~4605 Kbps
    Аудио: AC3, 6 ch, 448 Kbps

    Общее
    Уникальный идентификатор : 257085186355239353258945074122618180315 (0xC168CE4D3BD42915D0F43EB2797A12DB)
    Полное имя : F: Ванька (1959).mkv
    Формат : Matroska
    Версия формата : Version 2
    Размер файла : 1, 09 Гбайт
    Продолжительность : 30 м. 18 с.
    Режим общего битрейта : Переменный
    Общий поток : 5156 Кбит/сек
    Программа кодирования : Lavf54.63.104
    Библиотека кодирования : Lavf54.63.104
    Видео
    Идентификатор : 1
    Формат : AVC
    Формат/Информация : Advanced Video Codec
    Профиль формата : High@L4.1
    Настройки формата : CABAC/3 Ref Frames
    Параметр CABAC формата : Да
    Параметр RefFrames формата : 3 кадра
    Идентификатор кодека : V_MPEG4/ISO/AVC
    Продолжительность : 30 м. 18 с.
    Вид битрейта : Переменный
    Битрейт : 4606 Кбит/сек
    Максимальный битрейт : 19, 2 Мбит/сек
    Ширина : 1440 пикселей
    Высота : 1080 пикселей
    Соотношение сторон : 4: 3
    Режим частоты кадров : Постоянный
    Частота кадров : 25, 000 кадров/сек
    Стандарт вещания : PAL
    Цветовое пространство : YUV
    Субдискретизация насыщенности : 4: 2: 0
    Битовая глубина : 8 бит
    Тип развёртки : Прогрессивная
    Бит/(Пиксели*Кадры) : 0.118
    Размер потока : 998 Мбайт (89%)
    Default : Нет
    Forced : Нет
    Цветовой диапазон : Limited
    Основные цвета : BT.709
    Характеристики трансфера : BT.709
    Коэффициенты матрицы : BT.709
    Аудио
    Идентификатор : 2
    Формат : AC-3
    Формат/Информация : Audio Coding 3
    Идентификатор кодека : A_AC3
    Продолжительность : 30 м. 18 с.
    Вид битрейта : Постоянный
    Битрейт : 448 Кбит/сек
    Каналы : 6 каналов
    Расположение каналов : Front: L C R, Side: L R, LFE
    Частота : 48, 0 КГц
    Частота кадров : 31, 250 кадров/сек (1536 SPF)
    Битовая глубина : 16 бит
    Метод сжатия : С потерями
    Размер потока : 97, 1 Мбайт (9%)
    Язык : Russian
    ServiceKind/String : Complete Main
    Default : Да
    Forced : Нет

    Скриншоты для ознакомления



    Все одноименные релизы в Клубе
    Время раздачи: 24/7 (круглосуточно) (до появления первых 3-5 скачавших)


    Онлайн видео Ванька (1959) HDTVRip [H.264



    Ванька (1959) HDTVRip [H.264/1080p-LQ]
    загрузка...
    Рейтинг →
     (голосов: 1, оценка 3/5, голосовать можно 1 раз )

    Другие торренты по теме:



      Комментарии (0):

      Информация

      Информация

        Посетители, находящиеся в группе Гости, не могут оставлять комментарии в данной новости.

        ↓ Меню




        ↓ Опрос

        Вы добавили сайт в закладки?
        Да
        Нет


        Top 10 за месяц (Мультфильмы)