.
Авторизация | Регистрация
Хочешь лучшие торренты? Добавь свой email!
Добавить

Торрент скачать бесплатно

» » A Channel+smile: Nabe wo Tabeyou | A-Channel+smile: Lets Eat Hot Pot | A Channel: поедим горяченького [2017, OVA, 1] BDRip 720p raw торрент скачать бесплатно




    A Channel+smile: Nabe wo Tabeyou | A-Channel+smile: Lets Eat Hot Pot | A Channel: поедим горяченького [2017, OVA, 1] BDRip 720p raw торрент скачать бесплатно

    Опубликовал: Админ | Дата: 13-11-2017, 05:00 | Просмотров: 0

    Тип: OVA
    Жанр: комедия, повседневность, школа
    Продолжительность: 23 мин
    Количество серий: 1
    Дата выпуска: 27.09.2017
    Производство: MBS
    Режиссер: Aniplex
    Ссылки: World-Art

    Описание

    бонусный эпизод на BD-переиздании всей серии.
    Язык озвучки: Японский
    Субтитры: Русские
    Перевод: Krasialex
    Качество видео: BDRip
    Видео: AVC (Main@L4.1), 1280x720 (16: 9), ~23.976 fps, ~1187 kbps
    Аудио: AAC LC, 2 ch, 48 kHz, ~192 kbps
    В каком порядке смотреть:
    1 A Channel The Animation - ТВ (12 эп. + спэшлы), адаптация манги, 2011
    #2 A Channel +Smile - OVA (2 эп.), продолжение, 2012
    #3 A Channel +Smile: поедим горяченького - OVA (1 эп.), продолжение, 2017 (эта раздача)

    Скриншоты для ознакомления



    General
    Complete name : A channel OVA-3Ohys-Raws A Channel +Smile - 03 (BD 1280x720 x264 AAC).mp4
    Format : MPEG-4
    Format profile : Base Media
    Codec ID : isom (isom/avc1)
    File size : 229 MiB
    Duration : 23 min 10 s
    Overall bit rate mode : Variable
    Overall bit rate : 1 383 kb/s
    Encoded date : UTC 2017-10-02 08: 27: 23
    Tagged date : UTC 2017-10-02 08: 27: 23
    Video
    ID : 1
    Format : AVC
    Format/Info : Advanced Video Codec
    Format profile : Main@L4.1
    Format settings, CABAC : Yes
    Format settings, RefFrames : 4 frames
    Codec ID : avc1
    Codec ID/Info : Advanced Video Coding
    Duration : 23 min 10 s
    Bit rate : 1 187 kb/s
    Maximum bit rate : 7 384 kb/s
    Width : 1 280 pixels
    Height : 720 pixels
    Display aspect ratio : 16: 9
    Frame rate mode : Constant
    Frame rate : 23.976 (24000/1001) FPS
    Color space : YUV
    Chroma subsampling : 4: 2: 0
    Bit depth : 8 bits
    Scan type : Progressive
    Bits/(Pixel*Frame) : 0.054
    Stream size : 197 MiB (86%)
    Writing library : x264 core 152 r2851+58 429492e t_mod_Custom 8-bit@all X86_64
    Encoding settings : cabac=1/ref=3/deblock=1: 0: 0/analyse=0x1: 0x131/me=umh/subme=9/psy=1/fade_compensate=0.00/psy_rd=1.00: 0.00/mixed_ref=1/me_range=32/chroma_me=1/trellis=1/8x8dct=0/cqm=0/deadzone=21, 11/fast_pskip=1/chroma_qp_offset=-2/threads=18/lookahead_threads=1/sliced_threads=0/nr=0/decimate=1/interlaced=0/bluray_compat=0/constrained_intra=0/fgo=0/bframes=3/b_pyramid=2/b_adapt=1/b_bias=0/direct=1/weightb=1/open_gop=0/weightp=2/keyint=240/keyint_min=1/scenecut=40/intra_refresh=0/rc_lookahead=40/rc=crf/mbtree=1/crf=18.0000/qcomp=0.60/qpmin=0: 0: 0/qpmax=69: 69: 69/qpstep=4/ip_ratio=1.40/aq=1: 1.00/aq-sensitivity=10.00/aq-factor=1.00: 1.00: 1.00/aq2=0/aq3=0
    Encoded date : UTC 2017-10-02 08: 27: 23
    Tagged date : UTC 2017-10-02 08: 27: 25
    Audio
    ID : 2
    Format : AAC
    Format/Info : Advanced Audio Codec
    Format profile : LC
    Codec ID : 40
    Duration : 23 min 10 s
    Bit rate mode : Variable
    Bit rate : 192 kb/s
    Maximum bit rate : 265 kb/s
    Channel(s) : 2 channels
    Channel positions : Front: L R
    Sampling rate : 48.0 kHz
    Frame rate : 46.875 FPS (1024 SPF)
    Compression mode : Lossy
    Stream size : 31.8 MiB (14%)
    Language : Japanese
    Encoded date : UTC 2017-10-02 08: 23: 22
    Tagged date : UTC 2017-10-02 08: 27: 25
    Время раздачи: 24/7 (круглосуточно) (до появления первых 3-5 скачавших)


    A Channel+smile: Nabe wo Tabeyou | A-Channel+smile: Lets Eat Hot Pot | A Channel: поедим горяченького [2017, OVA, 1] BDRip 720p raw
    загрузка...
    Рейтинг →
     (голосов: 1, оценка 5/5, голосовать можно 1 раз )

    Другие торренты по теме:

  • Discovery. Сканируя небо: телескоп Discovery Channel / Scanning the skies: the Discovery Channel telescope (2012) HDTVRip [H.264 / 720p]
  • Discovery Science: Сканируя небо: телескоп Discovery Channel / Scanning the skies: the Discovery Channel telescope (2012) WEBRip скачать через торрент бесплатно
  • History Channel: Древние пришельцы / Ancient Aliens (2013) HDTVRip (Сезон 6, серия 17 )
  • History Channel: Древние пришельцы / Ancient Aliens (2013) HDTVRip (Сезон 6, серия 19 ) скачать через торрент бесплатно
  • History Channel: Древние пришельцы / Ancient Aliens (2013) HDTVRip (Сезон 6, серия 18 ) скачать через торрент бесплатно
  • History Channel: Древние пришельцы / Ancient Aliens (2014) HDTVRip (Сезон 7, серия 1 )
  • History Channel. Наследие кельтов / The Celtic Legacy (2011) HDTVRip [H.264 / 720p]
  • History Channel: Древние пришельцы / Ancient Aliens (2014) HDTVRip (Сезон 7, серия 5 ) скачать через торрент бесплатно


    • Комментарии (0):

      Информация

      Информация

        Посетители, находящиеся в группе Гости, не могут оставлять комментарии в данной новости.

        ↓ Меню




        ↓ Опрос

        Вы добавили сайт в закладки?
        Да
        Нет


        Top 10 за месяц (Мультфильмы)