.
Авторизация | Регистрация
Хочешь лучшие торренты? Добавь свой email!
Добавить

Торрент скачать бесплатно

» » Yoake Tsugeru Lu no Uta | Lu Over The Wall | Песня Лу на рассвете | Песнь Лу, что возвещает рассвет [2017, Movie] BDrip 1080p 10bit raw торрент скачать бесплатно




    Yoake Tsugeru Lu no Uta | Lu Over The Wall | Песня Лу на рассвете | Песнь Лу, что возвещает рассвет [2017, Movie] BDrip 1080p 10bit raw торрент скачать бесплатно

    Опубликовал: Админ | Дата: 13-11-2017, 05:00 | Просмотров: 0

    Жанр: приключения
    Тип: полнометражный фильм
    Продолжительность: 110 мин.
    Премьера: 19.05.2017
    Производство: студияScience Saru/サイエンスSaru
    Режиссер: Юаса Масааки
    Ссылки: World-Art, ANN, AniDB, MyAnimeList

    Описание

    В небольшом прибрежном городке живёт обычный школьник Кай. Мечтает Кай перебраться в Токио, где сможет реализовать свою мечту стать всемирно известным музыкантом. А пока он с друзьями организовал музыкальную группу Сирена и с переменным успехом выступает перед местными жителями.
    Но всё меняется, когда он встречает самую настояющую русалку. Как эта встреча перевернёт его жизнь? Ведь местные обыватели верят, что русалки приносят несчастья. Сможет ли Кай побороть суеверия или нет?
    Об этом и расскажет новая работа Масааки Юасы, режиссёра таких авангардных картин, как Игры разума (Mind Game), Кайба (Kaiba), Когти зверя (Kemonozume).
    Качество видео: BDrip
    Видео: AVC (High 4: 4: 4 Predictive@L5) 10 bit, 1920x1080 (16: 9), ~23.976 fps, ~13.6 Mbps
    Аудио #1: FLAC, 6 ch, 48 kHz, 24 bit, ~3562 kbps |Звук: Японский
    Аудио #2: FLAC, 2 ch, 48 kHz, 24 bit, ~1462 kbps |Звук: Японский
    Язык озвучки: Японский
    Субтитры: Русские
    Перевод: Drnndy + BBNG

    Скриншоты для ознакомления




    General
    Unique ID : 247737208745140647548642295175237431612 (0xBA60736BF63EB9B39B234D783D69713C)
    Complete name : Yoake Tsugeru Lu no Uta BD 1080p AVC FLACAnime Land Yoake Tsugeru Lu no Uta BD 1080p AVC-YUV444P102xFLACF61C3FF7.mkv
    Format : Matroska
    Format version : Version 4/Version 2
    File size : 14.5 GiB
    Duration : 1 h 51 min
    Overall bit rate mode : Variable
    Overall bit rate : 18.6 Mb/s
    Encoded date : UTC 2017-11-03 15: 02: 22
    Writing application : mkvmerge v16.0.0 (\'Protest\') 64-bit
    Writing library : libebml v1.3.5 + libmatroska v1.4.8
    Video
    ID : 1
    Format : AVC
    Format/Info : Advanced Video Codec
    Format profile : High 4: 4: 4 Predictive@L5
    Format settings, CABAC : Yes
    Format settings, RefFrames : 16 frames
    Codec ID : V_MPEG4/ISO/AVC
    Duration : 1 h 51 min
    Bit rate : 13.6 Mb/s
    Width : 1 920 pixels
    Height : 1 080 pixels
    Display aspect ratio : 16: 9
    Frame rate mode : Constant
    Frame rate : 23.976 (24000/1001) FPS
    Color space : YUV
    Chroma subsampling : 4: 4: 4
    Bit depth : 10 bits
    Scan type : Progressive
    Bits/(Pixel*Frame) : 0.273
    Stream size : 10.6 GiB (73%)
    Writing library : x264 core 150 r2833+58 090e24f t_mod_Custom 10-bit@all X86_64
    Encoding settings : cabac=1/ref=16/deblock=1: -2: -2/analyse=0x3: 0x133/me=esa/subme=11/psy=1/fade_compensate=0.00/psy_rd=0.75: 0.00/mixed_ref=1/me_range=30/chroma_me=1/trellis=2/8x8dct=1/cqm=0/deadzone=21, 11/fast_pskip=0/chroma_qp_offset=4/threads=12/lookahead_threads=3/sliced_threads=0/nr=0/decimate=1/interlaced=0/bluray_compat=0/constrained_intra=0/fgo=0/bframes=16/b_pyramid=2/b_adapt=2/b_bias=0/direct=3/weightb=1/open_gop=1/weightp=2/keyint=250/keyint_min=23/scenecut=40/intra_refresh=0/rc_lookahead=60/rc=crf/mbtree=1/crf=14.5000/qcomp=0.65/qpmin=0: 0: 0/qpmax=81: 81: 81/qpstep=4/ip_ratio=1.40/aq=3: 0.85/aq-sensitivity=10.00/aq-factor=1.00: 1.00: 1.00/aq2=0/aq3=0
    Language : Japanese
    Default : Yes
    Forced : No
    Color range : Limited
    Color primaries : BT.709
    Transfer characteristics : BT.709
    Matrix coefficients : BT.709
    Audio #1
    ID : 2
    Format : FLAC
    Format/Info : Free Lossless Audio Codec
    Codec ID : A_FLAC
    Duration : 1 h 51 min
    Bit rate mode : Variable
    Bit rate : 3 562 kb/s
    Channel(s) : 6 channels
    Channel positions : Front: L C R, Back: L R, LFE
    Sampling rate : 48.0 kHz
    Frame rate : 11.719 FPS (4096 SPF)
    Bit depth : 24 bits
    Stream size : 2.78 GiB (19%)
    Title : 5.1
    Writing library : libFLAC 1.3.2 (UTC 2017-01-01)
    Language : Japanese
    Default : Yes
    Forced : No
    Audio #2
    ID : 3
    Format : FLAC
    Format/Info : Free Lossless Audio Codec
    Codec ID : A_FLAC
    Duration : 1 h 51 min
    Bit rate mode : Variable
    Bit rate : 1 462 kb/s
    Channel(s) : 2 channels
    Channel positions : Front: L R
    Sampling rate : 48.0 kHz
    Frame rate : 11.719 FPS (4096 SPF)
    Bit depth : 24 bits
    Stream size : 1.14 GiB (8%)
    Title : 2.0
    Writing library : libFLAC 1.3.2 (UTC 2017-01-01)
    Language : Japanese
    Default : No
    Forced : No
    Время раздачи: круглосуточно


    Онлайн видео Yoake Tsugeru Lu no Uta



    Yoake Tsugeru Lu no Uta | Lu Over The Wall | Песня Лу на рассвете | Песнь Лу, что возвещает рассвет [2017, Movie] BDrip 1080p 10bit raw
    загрузка...
    Рейтинг →
     (голосов: 1, оценка 5/5, голосовать можно 1 раз )

    Другие торренты по теме:

  • Yoake Tsugeru Lu no Uta | Lu Over The Wall | Песня Лу на рассвете | Песнь Лу, что возвещает рассвет [2017, Movie] BDrip 720p 10bit raw


    • Комментарии (0):

      Информация

      Информация

        Посетители, находящиеся в группе Гости, не могут оставлять комментарии в данной новости.

        ↓ Меню




        ↓ Опрос

        Вы добавили сайт в закладки?
        Да
        Нет


        Top 10 за месяц (Мультфильмы)