.
Авторизация | Регистрация
Хочешь лучшие торренты? Добавь свой email!
Добавить

Торрент скачать бесплатно

» » Ван-Пис: Золото / One Piece Film: Gold (2016) BDRip 3D [H.264 / 1080p] [Вертикальная анаморфная стереопара] торрент скачать бесплатно




    Ван-Пис: Золото / One Piece Film: Gold (2016) BDRip 3D [H.264 / 1080p] [Вертикальная анаморфная стереопара] торрент скачать бесплатно

    Опубликовал: Админ | Дата: 13-11-2017, 05:00 | Просмотров: 0

    Производство: Япония/Fuji Television Network Inc., Toei Animation Company
    Жанр: мультфильм, фэнтези, боевик, приключения
    Режиссер: Хироаки Миямото

    Актеры
    Маюми Танака, Кадзуя Накаи, Акэми Окамура, Каппэи Ямагути, Хирата Хироаки, Икуэ Отани, Юрико Ямагути, Яо Кадзуки, Кадзухиро Ямадзи, Сакураи Такахиро

    Описание

    Команда Мугивары попадает на огромный лайнер Гран Тэзоро, который оказывается настоящим городом развлечений с непрекращающимися ни днём ни ночью шоу и казино, которое собирают богатейших людей со всего мира. Гран Тэзоро — это абсолютно неприкосновенная зона, признанная Мировым правительством, поэтому будь то пират или дозорный, для всех в казино действуют одни правила.
    Там Луффи и его друзья встречают хозяина корабля, человека, который с помощью силы золота подчинил и Мировое правительство и Мировую знать Тэнрюбито, Гильда Тэзоро. А за кулисами роскошного города развлечений стоит непреодолимая жажда господства, в водоворот которой попали слишком многие, и жестокий закон казино Гран Тэзоро:
    Обманутый считается проигравшим. Что есть свобода и подчинение? В поисках ответа на этот вопрос Луффи и его
    друзья ставят на кон свою веру и жизни.

    Дата мировой премьеры: 15 июля 2016
    Релиз от: NNM-Club, RG Всё лучшее - детям!
    Продолжительность: 02: 00: 10
    Качество видео: BDRip 3D
    Перевод: Одноголосый закадровый, любительский
    Озвучка: Persona99 (женский голос)
    Субтитры: Русские - Полные (AOS Team), (Вшитые отключаемые, отдельным файлом)
    Видео: AVC/H.264, 1920x1080, ~5972 Кбит/сек
    Аудио 1: AC3 5.1 448 Кбит/сек - Русский
    Аудио 2: AC3 5.1 640 Кбит/сек - Японский

    Общее
    Уникальный идентификатор : 240154375353295882191648013077235761902 (0xB4AC0CDEF19D05158ECC9730F44E02EE)
    Полное имя : K: tempOne Piece Film - Gold 3DOne Piece Film - Gold 3D.mkv
    Формат : Matroska
    Версия формата : Version 2
    Размер файла : 6, 05 Гбайт
    Продолжительность : 2 ч. 0 м.
    Общий поток : 7203 Кбит/сек
    Название фильма : One Piece Film - Gold 3D Half O/U
    Дата кодирования : UTC 2017-11-12 10: 57: 44
    Программа кодирования : mkvmerge v5.8.0 (\'No Sleep/Pillow\') built on Sep 2 2012 15: 37: 04
    Библиотека кодирования : libebml v1.2.3 + libmatroska v1.3.0
    Видео
    Идентификатор : 1
    Формат : AVC
    Формат/Информация : Advanced Video Codec
    Профиль формата : High@L4.1
    Параметр CABAC формата : Да
    Параметр ReFrames формата : 4 кадра
    Идентификатор кодека : V_MPEG4/ISO/AVC
    Продолжительность : 2 ч. 0 м.
    Битрейт : 5972 Кбит/сек
    Ширина : 1920 пикселей
    Высота : 1080 пикселей
    Соотношение сторон : 16: 9
    Режим частоты кадров : Постоянный
    Частота кадров : 23, 976 (24000/1001) кадра/сек
    Цветовое пространство : YUV
    Субдискретизация насыщенности : 4: 2: 0
    Битовая глубина : 8 бит
    Тип развёртки : Прогрессивная
    Бит/(Пиксели*Кадры) : 0.120
    Размер потока : 5, 01 Гбайт (83%)
    Заголовок : rip by I/N
    Библиотека кодирования : x264 core 148 r2744 b97ae06
    Настройки программы : cabac=1/ref=4/deblock=1: -3: -3/analyse=0x3: 0x133/me=umh/subme=10/psy=1/psy_rd=1.00: 0.15/mixed_ref=1/me_range=64/chroma_me=1/trellis=2/8x8dct=1/cqm=0/deadzone=21, 11/fast_pskip=0/chroma_qp_offset=-3/threads=12/lookahead_threads=3/sliced_threads=0/nr=0/decimate=1/interlaced=0/bluray_compat=0/constrained_intra=0/bframes=16/b_pyramid=2/b_adapt=2/b_bias=0/direct=3/weightb=1/open_gop=0/weightp=2/keyint=250/keyint_min=23/scenecut=40/intra_refresh=0/rc_lookahead=60/rc=crf/mbtree=1/crf=16.0/qcomp=0.60/qpmin=0/qpmax=69/qpstep=4/vbv_maxrate=40000/vbv_bufsize=30000/crf_max=0.0/nal_hrd=none/filler=0/frame-packing=4/ip_ratio=1.40/aq=1: 1.00
    Default : Да
    Forced : Нет
    Цветовой диапазон : Limited
    Основные цвета : BT.709
    Характеристики трансфера : BT.709
    Коэффициенты матрицы : BT.709
    Аудио #1
    Идентификатор : 2
    Формат : AC-3
    Формат/Информация : Audio Coding 3
    Параметр Endianness формата : Big
    Идентификатор кодека : A_AC3
    Продолжительность : 2 ч. 0 м.
    Вид битрейта : Постоянный
    Битрейт : 448 Кбит/сек
    Каналы : 6 каналов
    Расположение каналов : Front: L C R, Side: L R, LFE
    Частота : 48, 0 КГц
    Частота кадров : 31, 250 кадров/сек (1536 spf)
    Битовая глубина : 16 бит
    Метод сжатия : С потерями
    Размер потока : 385 Мбайт (6%)
    Заголовок : VO - Persona99
    Язык : Russian
    ServiceKind/String : Complete Main
    Default : Да
    Forced : Нет
    Аудио #2
    Идентификатор : 3
    Формат : AC-3
    Формат/Информация : Audio Coding 3
    Параметр Endianness формата : Big
    Идентификатор кодека : A_AC3
    Продолжительность : 2 ч. 0 м.
    Вид битрейта : Постоянный
    Битрейт : 640 Кбит/сек
    Каналы : 6 каналов
    Расположение каналов : Front: L C R, Side: L R, LFE
    Частота : 48, 0 КГц
    Частота кадров : 31, 250 кадров/сек (1536 spf)
    Битовая глубина : 16 бит
    Метод сжатия : С потерями
    Размер потока : 550 Мбайт (9%)
    Заголовок : Original
    Язык : Japanese
    ServiceKind/String : Complete Main
    Default : Нет
    Forced : Нет
    Текст
    Идентификатор : 4
    Формат : UTF-8
    Идентификатор кодека : S_TEXT/UTF8
    Идентификатор кодека/Информация : UTF-8 Plain Text
    Заголовок : Full - AOS Team
    Язык : Russian
    Default : Нет
    Forced : Нет
    Меню
    00: 00: 00.000 : en: 1 - 0: 00: 00
    00: 12: 25.745 : en: 2 - 0: 12: 26
    00: 27: 53.296 : en: 3 - 0: 27: 53
    00: 39: 35.373 : en: 4 - 0: 39: 35
    00: 49: 06.526 : en: 5 - 0: 49: 07
    01: 06: 25.773 : en: 6 - 1: 06: 26
    01: 21: 45.984 : en: 7 - 1: 21: 46
    01: 29: 38.081 : en: 8 - 1: 29: 38
    01: 40: 05.332 : en: 9 - 1: 40: 05
    01: 56: 51.212 : en: 10 - 1: 56: 51
    02: 00: 08.576 : en: 11 - 2: 00: 09


    Онлайн видео Ван-Пис: Золото



    Ван-Пис: Золото/One Piece Film: Gold (2016) BDRip 3D [H.264/1080p] [Вертикальная анаморфная стереопара]
    загрузка...
    Рейтинг →
     (голосов: 1, оценка 5/5, голосовать можно 1 раз )

    Другие торренты по теме:

  • Wanpiisu / One Piece / Ван-Пис [1999, 651-702 из ] HDTV 720p raw скачать через торрент бесплатно
  • One Piece / Ван Пис [1999, TV, 1-740 + 13 Movies] DVDRip / HDTVRip / BDRip 480p / 720p rus
  • Wanpiisu / One Piece / Ван-Пис [1999, 651-742 из ] HDTV Hi10p 720p raw
  • One piece / Ван Пис (1997) [0-844 гл.] [Русский][incomplete]
  • One Piece / Ван-Пис [1999, TV, 741-779] HDTV 720p rus
  • Wanpiisu / One Piece / Ван-Пис [1999, 651-800 из ] HDTV Hi10p 720p raw


    • Комментарии (0):

      Информация

      Информация

        Посетители, находящиеся в группе Гости, не могут оставлять комментарии в данной новости.

        ↓ Меню




        ↓ Опрос

        Вы добавили сайт в закладки?
        Да
        Нет


        Top 10 за месяц (Мультфильмы)