.
Авторизация | Регистрация
Хочешь лучшие торренты? Добавь свой email!
Добавить

Торрент скачать бесплатно

» » Реальная белка 2 / The Nut Job 2: Nutty by Nature (2017) BDRip [H.264 / 1080p] [Line] [AD] торрент скачать бесплатно




    Реальная белка 2 / The Nut Job 2: Nutty by Nature (2017) BDRip [H.264 / 1080p] [Line] [AD] торрент скачать бесплатно

    Опубликовал: Админ | Дата: 13-11-2017, 05:00 | Просмотров: 0

    Производство: Канада, Корея Южная, США
    Жанр: Комедия, приключения, семейный
    Режиссер: Кэллан Брункер
    Продюсер: Боб Барлен, Jonghan Kim, Jongsoo Kim, ...
    Озвучка: Уилл Арнетт, Кэтрин Хайгл, Майя Рудольф, Джеки Чан, Изабела Монер, Петер Стормаре, Бобби Каннавале, Бобби Мойнахан, Джефф Данэм, Габриэль Иглесиас

    Описание

    В продолжении веселых хвостатых приключений белке Злюку и его друзьям снова нужно действовать сообща. На сей раз — чтобы спасти свой дом: мэр города задумал вырубить их парк и построить на его месте бездушные аттракционы… К счастью, у Злюка и других любителей арахиса есть план, не последняя роль в котором отведена новым друзьям наших героев — белым мышам под предводительством мудрого мистера Фэнга.

    Возраст: этот продукт не был классифицирован
    Рейтинг MPAA: PG (рекомендуется присутствие родителей)
    Дата мировой премьеры: 11 августа 2017
    Дата российской премьеры: 24 августа 2017, Централ Партнершип
    Релиз от: KOSHARA
    Продолжительность: 01: 31: 41
    Качество видео: BDRip 1080p
    Перевод: Дублированный (Line)
    Субтитры: Отсутствуют
    Реклама: Присутствует голосовая, текстовая и видео реклама!
    Видео: AVC/H.264, 1920x1036 (1, 85: 1), 10531 kbps, 23.976 fps
    Аудио: AC-3, 2.0, 48 kHz, 448 kbps

    Общее
    Уникальный идентификатор : 222272795007240600915526303223932235277 (0xA7382EE4681AD4EAB8E13B457C0BAE0D)
    Полное имя : D: ФильмыReal\'naya.belka.2.2017.BDRip.1080p.mkv
    Формат : Matroska
    Версия формата : Version 2
    Размер файла : 7, 03 Гбайт
    Продолжительность : 1 ч. 31 м.
    Режим общего битрейта : Переменный
    Общий поток : 11, 0 Мбит/сек
    Дата кодирования : UTC 2017-11-11 20: 52: 18
    Программа кодирования : mkvmerge v8.3.0 (\'Over the Horizon\') 64bit
    Библиотека кодирования : libebml v1.3.1 + libmatroska v1.4.2
    Видео
    Идентификатор : 1
    Формат : AVC
    Формат/Информация : Advanced Video Codec
    Профиль формата : High@L4.1
    Настройки формата : CABAC/4 Ref Frames
    Параметр CABAC формата : Да
    Параметр RefFrames формата : 4 кадра
    Идентификатор кодека : V_MPEG4/ISO/AVC
    Продолжительность : 1 ч. 31 м.
    Вид битрейта : Переменный
    Битрейт : 10, 5 Мбит/сек
    Максимальный битрейт : 12, 0 Мбит/сек
    Ширина : 1920 пикселей
    Высота : 1036 пикселей
    Соотношение сторон : 1, 85: 1
    Режим частоты кадров : Постоянный
    Частота кадров : 23, 976 (24000/1001) кадра/сек
    Стандарт вещания : Component
    Цветовое пространство : YUV
    Субдискретизация насыщенности : 4: 2: 0
    Битовая глубина : 8 бит
    Тип развёртки : Прогрессивная
    Бит/(Пиксели*Кадры) : 0.221
    Размер потока : 6, 74 Гбайт (96%)
    Default : Да
    Forced : Нет
    Цветовой диапазон : Limited
    Основные цвета : BT.709
    Характеристики трансфера : BT.709
    Коэффициенты матрицы : BT.709
    Аудио
    Идентификатор : 2
    Формат : AC-3
    Формат/Информация : Audio Coding 3
    Идентификатор кодека : A_AC3
    Продолжительность : 1 ч. 31 м.
    Вид битрейта : Постоянный
    Битрейт : 448 Кбит/сек
    Каналы : 2 канала
    Расположение каналов : Front: L R
    Частота : 48, 0 КГц
    Частота кадров : 31, 250 кадров/сек (1536 SPF)
    Битовая глубина : 16 бит
    Метод сжатия : С потерями
    Размер потока : 294 Мбайт (4%)
    ServiceKind/String : Complete Main
    Default : Да
    Forced : Нет

    File: D: ФильмыReal\'naya.belka.2.2017.BDRip.1080p.mkv
    Duration: 01: 31: 42 (5501.63)
    Track #1: video
    lang: und (1)
    codc: V_MPEG4/ISO/AVC - H264/AVC (22)
    reso: 1920x1036 (1920x1036) - Unknown (aka not common)
    fram: 23.976 fps
    rate: 10531 kbps (10530.7)
    dura: 01: 31: 42 (5501.58)
    size: 6.74 GB (7241909581)
    Track #2: audio
    lang: und - Unknown (1)
    codc: A_AC3 - AC3 (2)
    chan: 2 - Stereo
    samp: 48000 Hz
    rate: 448 kbps (448.04)
    dura: 01: 31: 42 (5501.60)
    size: 293.84 MB (308114856)
    Sizes: (check sanity)
    disk: 7.03 GB (7551341994)
    trac: 3.03 GB (3255057141) based on track size
    bitr: 7.03 GB (7550022773) based on bitrate
    tdif: 4.00 GB (4296284853) 56.89%
    bdif: 1.26 MB (1319220) 0.01%

    Скриншоты для ознакомления


    Все одноименные релизы в Клубе
    Время раздачи: 24/7 (до появления первых 3-5 скачавших)


    Онлайн видео Реальная белка 2



    Реальная белка 2/The Nut Job 2: Nutty by Nature (2017) BDRip [H.264/1080p] [Line] [AD]
    загрузка...
    Рейтинг →
     (голосов: 1, оценка 3/5, голосовать можно 1 раз )

    Другие торренты по теме:

  • Реальная белка 2 / The Nut Job 2: Nutty by Nature (2017) WEBRip [H.264 / 1080p] [Трейлер]
  • Реальная белка 2 / The Nut Job 2: Nutty by Nature (2017) CamRip [AD]
  • Реальная белка 2 / The Nut Job 2: Nutty by Nature (2017) WEB-DL [H.264 / 720p-LQ] [EN / EN Sub]


    • Комментарии (0):

      Информация

      Информация

        Посетители, находящиеся в группе Гости, не могут оставлять комментарии в данной новости.

        ↓ Меню




        ↓ Опрос

        Вы добавили сайт в закладки?
        Да
        Нет


        Top 10 за месяц (Мультфильмы)