.
Авторизация | Регистрация
Хочешь лучшие торренты? Добавь свой email!
Добавить

Торрент скачать бесплатно

» » Корабль сокровищ / Janosch: Komm, wir finden einen Schatz (2012) BDRip 3D [H.264 / 1080p] [Вертикальная анаморфная стереопара] торрент скачать бесплатно




    Корабль сокровищ / Janosch: Komm, wir finden einen Schatz (2012) BDRip 3D [H.264 / 1080p] [Вертикальная анаморфная стереопара] торрент скачать бесплатно

    Опубликовал: Админ | Дата: 13-11-2017, 05:00 | Просмотров: 0

    Производство: Германия/Papa Löwe Filmproduktion Gmbh, Virgin Lands Animated Pictures, Virgin Lands Animated Pictures
    Жанр: мультфильм
    Режиссер: Ирина Пробост

    Актеры
    Мальте Аркона, Михаэль Шанце, Элтон, Тобиаш Дьяков, Грегор Хёппнер, Фрауке Пулманн, Мартин Бросс, Linus Haupt

    Описание

    Старая карта сокровищ, верные друзья и захватывающие приключения! Однажды на рыбалке тигр и медведь вылавливают старую карту сокровищ. Они не верят своему счастью! Но тут же появляется соперник-пёс, который тоже мечтает посмотреть на древнюю карту. Защищая ценный улов, тигр и медведь ввязываются с ним в драку, в результате которой карта рвется пополам, и часть ее уносит ветром… Теперь друзьям нужно отыскать потерявшуюся половину карты, и сделать это будет совсем непросто. Только затем они смогут отправиться на охоту за сокровищами, полную трудностей и сюрпризов.

    Дата мировой премьеры: 24 мая 2012
    Релиз от: NNM-Club, RG Всё лучшее - детям!
    Продолжительность: 01: 13: 38
    Качество видео: BDRip 3D
    Перевод: Дублированный
    Субтитры: Отсутствуют
    Видео: AVC/H.264, 1920x1080, ~10, 1 Мбит/сек
    Аудио: AC3 5.1 640 Кбит/сек - Русский

    Общее
    Уникальный идентификатор : 247798248499462046298056234144929315967 (0xBA6C34E9F9B862E6AF303771C9EA7C7F)
    Полное имя : K: tempJanosch komm 3D.mkv
    Формат : Matroska
    Версия формата : Version 2
    Размер файла : 5, 64 Гбайт
    Продолжительность : 1 ч. 13 м.
    Общий поток : 11, 0 Мбит/сек
    Название фильма : Janosch komm 3D Half _O/U
    Дата кодирования : UTC 2017-11-12 16: 59: 44
    Программа кодирования : mkvmerge v5.8.0 (\'No Sleep/Pillow\') built on Sep 2 2012 15: 37: 04
    Библиотека кодирования : libebml v1.2.3 + libmatroska v1.3.0
    Видео
    Идентификатор : 1
    Формат : AVC
    Формат/Информация : Advanced Video Codec
    Профиль формата : High@L4.1
    Параметр CABAC формата : Да
    Параметр ReFrames формата : 4 кадра
    Идентификатор кодека : V_MPEG4/ISO/AVC
    Продолжительность : 1 ч. 13 м.
    Битрейт : 10, 1 Мбит/сек
    Ширина : 1920 пикселей
    Высота : 1080 пикселей
    Соотношение сторон : 16: 9
    Режим частоты кадров : Постоянный
    Частота кадров : 23, 976 (24000/1001) кадра/сек
    Цветовое пространство : YUV
    Субдискретизация насыщенности : 4: 2: 0
    Битовая глубина : 8 бит
    Тип развёртки : Прогрессивная
    Бит/(Пиксели*Кадры) : 0.203
    Размер потока : 5, 20 Гбайт (92%)
    Заголовок : rip by I/N
    Библиотека кодирования : x264 core 148 r2744 b97ae06
    Настройки программы : cabac=1/ref=4/deblock=1: -3: -3/analyse=0x3: 0x133/me=umh/subme=10/psy=1/psy_rd=1.00: 0.15/mixed_ref=1/me_range=64/chroma_me=1/trellis=2/8x8dct=1/cqm=0/deadzone=21, 11/fast_pskip=0/chroma_qp_offset=-3/threads=12/lookahead_threads=3/sliced_threads=0/nr=0/decimate=1/interlaced=0/bluray_compat=0/constrained_intra=0/bframes=16/b_pyramid=2/b_adapt=2/b_bias=0/direct=3/weightb=1/open_gop=0/weightp=2/keyint=250/keyint_min=23/scenecut=40/intra_refresh=0/rc_lookahead=60/rc=crf/mbtree=1/crf=15.0/qcomp=0.60/qpmin=0/qpmax=69/qpstep=4/vbv_maxrate=40000/vbv_bufsize=30000/crf_max=0.0/nal_hrd=none/filler=0/frame-packing=4/ip_ratio=1.40/aq=1: 1.00
    Default : Да
    Forced : Нет
    Цветовой диапазон : Limited
    Основные цвета : BT.709
    Характеристики трансфера : BT.709
    Коэффициенты матрицы : BT.709
    Аудио
    Идентификатор : 2
    Формат : AC-3
    Формат/Информация : Audio Coding 3
    Параметр Endianness формата : Big
    Идентификатор кодека : A_AC3
    Продолжительность : 1 ч. 13 м.
    Вид битрейта : Постоянный
    Битрейт : 640 Кбит/сек
    Каналы : 6 каналов
    Расположение каналов : Front: L C R, Side: L R, LFE
    Частота : 48, 0 КГц
    Частота кадров : 31, 250 кадров/сек (1536 spf)
    Битовая глубина : 16 бит
    Метод сжатия : С потерями
    Размер потока : 337 Мбайт (6%)
    Заголовок : Дубляж
    Язык : Russian
    ServiceKind/String : Complete Main
    Default : Да
    Forced : Нет
    Меню
    00: 00: 00.000 : en: 1 - 0: 00: 00
    00: 05: 28.951 : en: 2 - 0: 05: 29
    00: 11: 44.912 : en: 3 - 0: 11: 45
    00: 16: 45.004 : en: 4 - 0: 16: 45
    00: 23: 55.392 : en: 5 - 0: 23: 55
    00: 30: 35.540 : en: 6 - 0: 30: 36
    00: 33: 49.777 : en: 7 - 0: 33: 50
    00: 41: 55.512 : en: 8 - 0: 41: 56
    00: 48: 35.913 : en: 9 - 0: 48: 36
    00: 53: 46.889 : en: 10 - 0: 53: 47
    01: 00: 45.099 : en: 11 - 1: 00: 45
    01: 09: 08.769 : en: 12 - 1: 09: 09
    01: 13: 38.412 : en: 13 - 1: 13: 38

    Скриншоты для ознакомления



    Все одноименные релизы в Клубе
    Время раздачи: 24/7 - круглосуточно до 5 скачавших


    Онлайн видео Корабль сокровищ



    Корабль сокровищ/Janosch: Komm, wir finden einen Schatz (2012) BDRip 3D [H.264/1080p] [Вертикальная анаморфная стереопара]
    загрузка...
    Рейтинг →
     (голосов: 1, оценка 5/5, голосовать можно 1 раз )

    Другие торренты по теме:

  • Корабль сокровищ / Janosch: Komm, wir finden einen Schatz (2012) HDRip
  • Корабль сокровищ / Janosch: Komm, wir finden einen Schatz (2012) BDRemux 3D [H.264 / 1080p] [ISO]


    • Комментарии (0):

      Информация

      Информация

        Посетители, находящиеся в группе Гости, не могут оставлять комментарии в данной новости.

        ↓ Меню




        ↓ Опрос

        Вы добавили сайт в закладки?
        Да
        Нет


        Top 10 за месяц (Мультфильмы)