.
Авторизация | Регистрация
Хочешь лучшие торренты? Добавь свой email!
Добавить

Торрент скачать бесплатно

» » Про Диму (2016) WEB-DLRip [H.264 / 720p-LQ] торрент скачать бесплатно




    Про Диму (2016) WEB-DLRip [H.264 / 720p-LQ] торрент скачать бесплатно

    Опубликовал: Админ | Дата: 12-11-2017, 05:00 | Просмотров: 0

    Год выпуска: 2016
    Жанр: Детский, Компьютерная анимация, Короткометражный
    Производство: Россия (Анимационная Студия Паровоз)
    Режиссер: Ришат Гильметдинов
    Персонажи: Мама - Ольга Шелест, Мира - Маша Вакуленко, Дима - Артем Леонтьев
    Рассказчик: Тимур Солодов

    Описание

    Мультфильм Про Диму рассказывает о встрече девочки Миры и мальчика, не похожего на её друзей. Дима плохо ходит и почти не говорит, но любопытство Миры и добрые советы её мамы становятся началом настоящей дружбы. Мире предстоит понять, что знакомству и игре диагнозы не помеха, и можно делить радость общения с теми, кто от тебя отличается.
    Возраст: 0+ (для любой зрительской аудитории)
    Рейтинг MPAA: G (нет возрастных ограничений)
    Релиз от: Natasha77
    Продолжительность: 00: 03: 28
    Качество видео: WEB-DLRip
    Перевод: Не требуется (Русский)
    Субтитры: Отсутствуют
    Видео: AVC/H.264, 1280x720, ~1000 kbps
    Аудио: Русский: AС3, 2 ch, 192 kbps
    Код: выделить все
    General
    Unique ID : 125909700941875074026343054791367168396 (0x5EB9538A93ECBFD33156D9E44F57918C)
    Complete name : C:Про Диму.mkv
    Format : Matroska
    Format version : Version 4/Version 2
    File size : 26.5 MiB
    Duration : 3 min 28 s
    Overall bit rate : 1 063 kb/s
    Writing application : Lavf57.71.100
    Writing library : Lavf57.71.100
    ErrorDetectionType : Per level 1
    Video
    ID : 1
    Format : AVC
    Format/Info : Advanced Video Codec
    Format profile :Main@L3.1
    Format settings : CABAC/3 Ref Frames
    Format settings, CABAC : Yes
    Format settings, RefFrames : 3 frames
    Codec ID : V_MPEG4/ISO/AVC
    Duration : 3 min 28 s
    Bit rate : 850 kb/s
    Width : 1 280 pixels
    Height : 720 pixels
    Display aspect ratio : 16:9
    Frame rate mode : Constant
    Frame rate : 25.000 FPS
    Color space : YUV
    Chroma subsampling : 4:2:0
    Bit depth : 8 bits
    Scan type : Progressive
    Bits/(Pixel*Frame) : 0.037
    Stream size : 21.2 MiB (80%)
    Default : Yes
    Forced : No
    Color range : Limited
    Color primaries : BT.709
    Transfer characteristics : BT.709
    Matrix coefficients : BT.709
    Audio
    ID : 2
    Format : AC-3
    Format/Info : Audio Coding 3
    Format settings, Endianness : Big
    Codec ID : A_AC3
    Duration : 3 min 28 s
    Bit rate mode : Constant
    Bit rate : 192 kb/s
    Channel(s) : 2 channels
    Channel positions : Front: L R
    Sampling rate : 44.1 kHz
    Frame rate : 28.711 FPS (1536 SPF)
    Bit depth : 16 bits
    Compression mode : Lossy
    Delay relative to video : -120 ms
    Stream size : 4.78 MiB (18%)
    Service kind : Complete Main
    Default : Yes
    Forced : No
    Мире нравится гулять
    Утром с мамой в парке.
    Бегать, прыгать, птиц считать,
    Просто на траве лежать,
    Если очень жарко.
    Мира знает, каждый день
    В парк приводят Диму.
    Мама Диму прячет в тень.
    Поправляет шарф, ремень,
    Где необходимо.
    Мама, я хочу спросить,
    Почему не может
    Дима четко говорить,
    Шайбой по воротам бить,
    Бегать вдоль дорожек.
    Значимый вопрос какой
    Ты задать решила.
    То, что для других легко
    Диме не по силам.
    Вот смотри... Не можешь ты
    Управлять машиной.
    Несколько вещей других
    Не умеет Дима.
    То, что большинству людей,
    Просто удается,
    Диме в 10 раз сложней.
    НО! Он не сдается.
    Мама, Катя говорит.
    Дима очень странный,
    И что с тем, кто так рычит,
    Мы играть не станем.
    Что он глупый и больной.
    Разве так бывает?
    Тоже стану я такой,
    Если с ним сыграю?
    Эти говорят слова
    Те, кто мало знает.
    Важным не считает.
    Чтобы четко отличать
    Знания от сплетен,
    Нужно каждый день читать
    И большим, и детям.
    Он не глупый, это факт,
    Точно не заразен.
    Просто мир устроен так, -
    Он разнообразен.
    Ваня с детства был левшой,
    Ян считать не может.
    Саша ростом небольшой,
    Таня с темной кожей,
    Ира любит кабачки,
    Гоша петь под душем,
    На моем носу очки
    На твоём – веснушки.
    А дружить умеет он,
    Если он особый?
    Дружба - дело двух сторон.
    Ты сама попробуй
    Подойти и поиграть.
    Обсуди животных.
    Думаю, что другом стать
    Сможет он охотно.
    Он особый, как любой.
    Ведь для каждой мамы
    Будет свой малыш родной
    Пре-особый самый.
    В мире люди все равны.
    Раз кому-то сложно,
    Будь добрее, протяни
    Руку осторожно.
    Улыбайся от души, -
    Это всем приятно.
    В играх сильно не спеши.
    Говори понятно.
    Если видишь, он сердит,
    Если смотрит строго.
    Улыбнись и отойди.
    Подожди немного.
    Мира яблоко взяла
    В качестве подарка.
    И уверенно пошла
    По алее парка.
    Молча Диме отдала,
    Улыбаясь туго.
    И мгновенно поняла, -
    Дима-то беззубый!!!
    Точно так, как у нее,
    Нет зубов передних.
    И не нужен им вдвоём
    Никакой посредник.

    Скриншоты для ознакомления

    Аркадий Паровозов
    Бумажки
    Волшебный фонарь
    Герои Энвелла
    Деревяшки
    Лео и Тиг
    Ми-ми-мишки
    Про Диму
    Сказочный патруль
    СОБЕЗ
    Четверо в Кубе

    Про Диму на NoNaMe Club


    Онлайн видео Про Диму (2016) WEB-DLRip [H.264



    Про Диму (2016) WEB-DLRip [H.264/720p-LQ]
    загрузка...
    Рейтинг →
     (голосов: 1, оценка 3/5, голосовать можно 1 раз )

    Другие торренты по теме:



      Комментарии (0):

      Информация

      Информация

        Посетители, находящиеся в группе Гости, не могут оставлять комментарии в данной новости.

        ↓ Меню




        ↓ Опрос

        Вы добавили сайт в закладки?
        Да
        Нет


        Top 10 за месяц (Мультфильмы)