.
Авторизация | Регистрация
Хочешь лучшие торренты? Добавь свой email!
Добавить

Торрент скачать бесплатно

» » Дракоша Тоша (2017) WEB-DLRip [H.264 / 720p-LQ] (сезон 1, серии 1-3 из 26) [Обновляемая] торрент скачать бесплатно




    Дракоша Тоша (2017) WEB-DLRip [H.264 / 720p-LQ] (сезон 1, серии 1-3 из 26) [Обновляемая] торрент скачать бесплатно

    Опубликовал: Админ | Дата: 11-11-2017, 05:00 | Просмотров: 0

    Год выпуска: 2017
    Производство: Россия (cтудия Анимации Петербург)
    Жанр: Развивающий анимационный сериал для малышей
    Режиссер: Марина Мошкова
    Продюсер: Олег Рой
    Роли озвучивали: Андрей Левин, Юлия Рудина
    Персонажи: Дракоша Тоша, Няша, Яша, Баночка (ТойРой)

    Описание

    Пандочка Няша уже большая — ей целых три года. А уж по сравнению со своим годовалым братиком Тимой она вообще взрослая! Их лучший друг – Дракоша Тоша. Тоша только прикидывается игрушкой: когда взрослые не видят, он оживает! Тоша умеет выдувать волшебные мыльные пузыри из Баночки ТойРой. А там, в волшебном пузыре, может поместиться все, что угодно: звездолёт, чудесный лес, замок принцессы, или пиратский корабль. Там Няша превращается в отважную исследовательницу, а Тима (при помощи его волшебного рюкзака-трансформера) – в супергероя! И вот тогда-то начинается настоящая игра…
    Возраст: 0+ (для любой зрительской аудитории)
    Рейтинг MPAA: G (нет возрастных ограничений)
    Релиз от: Natasha77
    Продолжительность: ~ 00: 05: 30 серия
    Качество видео: WEB-DLRip
    Перевод: Не требуется
    Видео: AVC/H.264, 1280x720, ~1500 kbps
    Аудио: AC3, 2 ch, 192 kbps
    Код: выделить все

    General
    Unique ID : 31957576082791365775960435170342061655 (0x180ACE265B81593E45FF2FD1D6E3C657)
    Complete name : C:Дракоша Тоша (720p-AVC)3_Страна Упрямдия.mkv
    Format : Matroska
    Format version : Version 4/Version 2
    File size : 33.8 MiB
    Duration : 5 min 33 s
    Overall bit rate : 851 kb/s
    Writing application : Lavf57.71.100
    Writing library : Lavf57.71.100
    ErrorDetectionType : Per level 1
    Video
    ID : 1
    Format : AVC
    Format/Info : Advanced Video Codec
    Format profile : Baseline@L3
    Format settings : 2 Ref Frames
    Format settings, CABAC : No
    Format settings, RefFrames : 2 frames
    Codec ID : V_MPEG4/ISO/AVC
    Duration : 5 min 33 s
    Bit rate : 642 kb/s
    Width : 1 280 pixels
    Height : 720 pixels
    Display aspect ratio : 16:9
    Frame rate mode : Constant
    Frame rate : 25.000 FPS
    Color space : YUV
    Chroma subsampling : 4:2:0
    Bit depth : 8 bits
    Scan type : Progressive
    Bits/(Pixel*Frame) : 0.028
    Stream size : 25.5 MiB (75%)
    Writing library : x264 core 144 r2533 c8a773e
    Encoding settings : cabac=0/ref=2/deblock=1:1:1/analyse=0x1:0x131/me=umh/subme=10/psy=1/psy_rd=0.40:0.00/mixed_ref=1/me_range=24/chroma_me=1/trellis=2/8x8dct=0/cqm=0/deadzone=21, 11/fast_pskip=1/chroma_qp_offset=-2/threads=2/lookahead_threads=1/sliced_threads=0/nr=0/decimate=1/interlaced=0/bluray_compat=0/constrained_intra=0/bframes=0/weightp=0/keyint=200/keyint_min=20/scenecut=40/intra_refresh=0/rc_lookahead=60/rc=crf/mbtree=1/crf=26.0/qcomp=0.60/qpmin=0/qpmax=69/qpstep=4/ip_ratio=1.40/aq=1:0.60
    Default : Yes
    Forced : No
    Audio
    ID : 2
    Format : AC-3
    Format/Info : Audio Coding 3
    Format settings, Endianness : Big
    Codec ID : A_AC3
    Duration : 5 min 33 s
    Bit rate mode : Constant
    Bit rate : 192 kb/s
    Channel(s) : 2 channels
    Channel positions : Front: L R
    Sampling rate : 44.1 kHz
    Frame rate : 28.711 FPS (1536 SPF)
    Bit depth : 16 bits
    Compression mode : Lossy
    Stream size : 7.62 MiB (23%)
    Service kind : Complete Main
    Default : Yes
    Forced : No
    Анимационный сериал Дракоша Тоша — комфортное игровое развивающее пространство для малыша. В интересную и забавную сказку, рассказанную любимыми героями, вложено три развивающих вектора:
    Вектор Социализация
    Каждая серия проекта — стандартная конфликтная ситуация, с которой малышу только предстоит научиться справляться самостоятельно: Телевизор сломался, Папа устал, Не хочу!, Мои игрушки, мои!, Кого больше любят?, Мама рассердилась, Капризка, Скучно! и т.д. Наши психологи в доброжелательной игровой форме учат маленького зрителя находить конструктивное решение этих проблем.
    Вектор Эрудиция
    Каждая серия в игровой форме знакомит малыша с фактами и явлениями окружающего мира: природные явления, география, исторические эпохи, кулинария, механика, великие люди, сказочные персонажи, космос, техника и т.д.
    Вектор Абстрактное мышление
    Каждая серия знакомит малыша с набором категорий и понятий, которые помогут ему активно познавать и классифицировать явления окружающего мира, учиться самостоятельному анализу: вкусный — невкусный, высокий — низкий, глубоко — мелко, говорить — молчать, горячо — холодно, далеко — близко, делать — бездельничать, день — ночь, добрый — злой, здоровый — больной, короткий — длинный, ложиться (садиться) — вставать, мокрый — сухой, молодой — старый, и т.д.

    Дракоша Тоша
    Лучший друг Няши и Тимы, чуть их постарше (и уже умеет читать), а выглядит как большая плюшевая игрушка. Но конечно, Тоша – настоящий дракон да еще волшебный! Он добрый, весёлый, мудрый, большой затейник и умеет выдувать волшебные мыльные пузыри, войдя в которые, все его друзья оказываются в волшебных мирах.
    Персонаж исполняет роль Монтессори-педагога, создающего для своих подопечных активное обучающее игровое пространство, подвигающее их к поиску верного решения. Он никогда не перечит Няше с Тимой, а просто переносит их в волшебный мир, где их заблуждения дойдут до абсурда, перевернутся с ног на голову, пока малыши не придут самостоятельно к правильному решению.
    Няша
    Симпатичная и озорная пандочка. Ей уже целых три года! У Няши богатое воображение, она любит играть, наряжаться и фантазировать. Няша – старшая сестра Тимы, а потому иногда она важничает и вредничает.
    Именно с этим персонажем маленький зритель будет себя идентифицировать. Няша объявляет тему сюжета, задает главные вопросы и первой находит на них ответы. Няша быстро понимает свою неправоту и объясняет, как правильно поступить Тиме и Баночке.
    Тима
    Братик Няши, жизнерадостный и забавный годовалый карапуз. Пока не умеет ходить и говорить, но с успехом заменяет ходьбу ползаньем, а речь — набором смешных звуков, которые Няша, впрочем, отлично понимает и постоянно переводит Дракоше, что сказал братик.
    Персонаж исполняет роль ребенка, которому Няша будет объяснять свои открытия и демонстрировать положительное воздействие правильных решений. Ребенку проще признать свои заблуждения именно так – разъяснить решение конфликтной ситуации младшему брату.
    Баночка (ТойРой)
    Баночка для Тошиных мыльных пузырей не готов мириться со своей скучной ролью и постоянно озорничает, критикует, во всём сомневается и всё хочет попробовать. В приключениях он постоянно мешает героям достичь своей цели.
    Трикстер и антогонист. Комический озорной персонаж. ТойРой поможет нашим героям довести свои заблуждения и ошибки до абсурда, а потом сам угодит в печальную ситуацию, из которой его придется выручать – наглядно продемонстрировав, куда может завести неправильное поведение.
    01. Подкроватные монстры
    02. Что такое ося?
    03. Страна Упрямдия
    Нет на свете дел важнее,
    Чем уметь друзей ценить.
    Ради дружбы и улыбки
    Будем весело шалить.
    Ведь не похож на бегемота,
    На жирафа не похож.
    Он похож на динозавра —
    Самый лучший из дракош!
    Ведь это Тоша, дракоша Тоша.
    Дракоша Тоша и его друзья.
    Тоша, Тоша хороший.
    Дракоша Тоша и его друзья.

    Скриншоты для ознакомления


    10.11.2017. Добавлена 3-я серия - Страна Упрямдия
    Дракоша Тоша на NoNaMe Club


    Онлайн видео Дракоша Тоша (2017) WEB-DLRip [H.264



    Дракоша Тоша (2017) WEB-DLRip [H.264/720p-LQ] (сезон 1, серии 1-3 из 26) [Обновляемая]
    загрузка...
    Рейтинг →
     (голосов: 1, оценка 4/5, голосовать можно 1 раз )

    Другие торренты по теме:



      Комментарии (0):

      Информация

      Информация

        Посетители, находящиеся в группе Гости, не могут оставлять комментарии в данной новости.

        ↓ Меню




        ↓ Опрос

        Вы добавили сайт в закладки?
        Да
        Нет


        Top 10 за месяц (Мультфильмы)