.
Авторизация | Регистрация
Хочешь лучшие торренты? Добавь свой email!
Добавить

Торрент скачать бесплатно

» » Человек-Паук / Spider-Man: The Animated Series (1994-1998) BDRip [H.265 / 1080p-LQ] (Сезон 1-5, Серии 01-65 из 65) торрент скачать бесплатно




    Человек-Паук / Spider-Man: The Animated Series (1994-1998) BDRip [H.265 / 1080p-LQ] (Сезон 1-5, Серии 01-65 из 65) торрент скачать бесплатно

    Опубликовал: Админ | Дата: 10-11-2017, 05:00 | Просмотров: 0

    Производство: США
    Жанр: Приключения, Фентези, Рисованная анимация, Детский
    Режиссер: Боб Ричардсон
    Персонажи: Питер Паркер/Человек-Паук, Мэри Джейн Уотсон, Уилсон Фиск/Кингпин, д-р Курт Коннорс/Ящер, Алистер Смайт, Норман Осборн/Зеленый гоблин, д-р Отто Октавиус/д-р Осьминог, Эдди Брок/Веном, Джейсон Макендейл/Хобгоблин и др.

    Описание

    Мультсериал повествует историю о супергерое, Человеке-пауке, под маской которого скрывается Питер Паркер - студент университета Эмпайр-стейт, в свободное время подрабатывающий фотографом в издании Дэйли Бьюгл. Случайный укус радиоактивного паука на научной выставке даровал Питеру невероятные паучьи способности. Когда грабитель убил его любимого дядю Бена, Питер решает использовать свои удивительные силы, чтобы защищать людей. Он навсегда запомнил слова своего дяди: Чем больше сила, тем больше и ответственность!

    Возраст: 12+ (зрителям, достигшим 12 лет)
    Рейтинг MPAA: PG (рекомендуется присутствие родителей)
    Дата мировой премьеры: 19 ноября 1994
    Продолжительность: 65 серий x ~00: 20: 00
    Качество видео: BDRip
    Перевод: Профессиональный (дублированный) серии 1-30, Профессиональный (многоголосый закадровый) серии 31-65
    Субтитры: нет
    Видео: HEVC/H.265, 1920x1080@1440x1080 (4: 3), 23.976 fps, 3 155 Kbps
    Аудио 1: AC-3, 48.0 KHz, 2 ch, 192 Kbps, CBR (Русский)
    Аудио 2: AC-3, 48.0 KHz, 2 ch, 320 Kbps, CBR (Английский)
    General
    Unique ID : 191220142454850766227591791311528757246 (0x8FDBA8EAC658AB81A8C828E90B4187FE)
    Complete name : U: Spider-Man - The Animated Series (1994)Season 11 Night of the Lizard .mkv
    Format : Matroska
    Format version : Version 4/Version 2
    File size : 515 MiB
    Duration : 19 min 15 s
    Overall bit rate : 3 742 kb/s
    Encoded date : UTC 2017-10-28 14: 32: 07/UTC 2017-01-27T07: 21: 16Z
    Writing application : mkvmerge v16.0.0 (\'Protest\') 64-bit
    Writing library : libebml v1.3.5 + libmatroska v1.4.8/Lavf57.7.2
    Video
    ID : 1
    Format : HEVC
    Format/Info : High Efficiency Video Coding
    Format profile : Main@L4@Main
    Codec ID : V_MPEGH/ISO/HEVC
    Duration : 19 min 15 s
    Bit rate : 3 155 kb/s
    Width : 1 920 pixels
    Height : 1 080 pixels
    Display aspect ratio : 4: 3
    Frame rate mode : Constant
    Frame rate : 23.976 (24000/1001) FPS
    Color space : YUV
    Chroma subsampling : 4: 2: 0
    Bit depth : 8 bits
    Bits/(Pixel*Frame) : 0.063
    Stream size : 435 MiB (84%)
    Writing library : x265 2.1: WindowsGCC 5.4.064 bit 8bit
    Encoding settings : wpp/ctu=64/min-cu-size=8/max-tu-size=32/tu-intra-depth=1/tu-inter-depth=1/me=1/subme=2/merange=57/no-rect/no-amp/max-merge=2/temporal-mvp/no-early-skip/rskip/rdpenalty=0/no-tskip/no-tskip-fast/strong-intra-smoothing/no-lossless/no-cu-lossless/no-constrained-intra/fast-intra/open-gop/no-temporal-layers/interlace=0/keyint=240/min-keyint=24/scenecut=40/rc-lookahead=15/lookahead-slices=6/bframes=4/bframe-bias=0/b-adapt=0/ref=3/limit-refs=3/no-limit-modes/weightp/no-weightb/aq-mode=1/qg-size=32/aq-strength=1.00/cbqpoffs=0/crqpoffs=0/rd=2/psy-rd=2.00/rdoq-level=0/psy-rdoq=0.00/log2-max-poc-lsb=8/no-rd-refine/signhide/deblock=0: 0/sao/no-sao-non-deblock/b-pyramid/cutree/no-intra-refresh/rc=crf/crf=20.0/qcomp=0.60/qpmin=0/qpmax=69/qpstep=4/ipratio=1.40/pbratio=1.30
    Default : Yes
    Forced : No
    Color range : Limited
    Color primaries : BT.709
    Transfer characteristics : BT.709
    Matrix coefficients : BT.709
    Statistics Tags Issue : mkvmerge v16.0.0 (\'Protest\') 64-bit 2017-10-28 14: 32: 07/mkvmerge v16.0.0 (\'Protest\') 64-bit 2017-10-28 14: 32: 07/UTC 2017-01-27T07: 21: 16Z
    FromStats_BitRate : 3248004
    FromStats_Duration : 00: 19: 09.065000000
    FromStats_FrameCount : 27549
    FromStats_StreamSize : 466520988
    Audio #1
    ID : 2
    Format : AC-3
    Format/Info : Audio Coding 3
    Format settings, Endianness : Big
    Codec ID : A_AC3
    Duration : 19 min 15 s
    Bit rate mode : Constant
    Bit rate : 192 kb/s
    Channel(s) : 2 channels
    Channel positions : Front: L R
    Sampling rate : 48.0 kHz
    Frame rate : 31.250 FPS (1536 SPF)
    Bit depth : 16 bits
    Compression mode : Lossy
    Stream size : 26.5 MiB (5%)
    Language : Russian
    Service kind : Complete Main
    Default : Yes
    Forced : No
    Statistics Tags Issue : mkvmerge v16.0.0 (\'Protest\') 64-bit 2017-10-28 14: 32: 07/mkvmerge v16.0.0 (\'Protest\') 64-bit 2017-10-28 14: 32: 07/UTC 2017-01-27T07: 21: 16Z
    FromStats_BitRate : 192000
    FromStats_Duration : 00: 19: 15.680000000
    FromStats_FrameCount : 36115
    FromStats_StreamSize : 27736320
    Audio #2
    ID : 3
    Format : AC-3
    Format/Info : Audio Coding 3
    Format settings, Endianness : Big
    Codec ID : A_AC3
    Duration : 19 min 15 s
    Bit rate mode : Constant
    Bit rate : 320 kb/s
    Channel(s) : 2 channels
    Channel positions : Front: L R
    Sampling rate : 48.0 kHz
    Frame rate : 31.250 FPS (1536 SPF)
    Bit depth : 16 bits
    Compression mode : Lossy
    Stream size : 44.1 MiB (9%)
    Title : Stereo
    Language : English
    Service kind : Complete Main
    Default : No
    Forced : No
    Statistics Tags Issue : mkvmerge v16.0.0 (\'Protest\') 64-bit 2017-10-28 14: 32: 07/mkvmerge v16.0.0 (\'Protest\') 64-bit 2017-10-28 14: 32: 07/UTC 2017-01-27T07: 21: 16Z
    FromStats_BitRate : 320000
    FromStats_Duration : 00: 19: 09.088000000
    FromStats_FrameCount : 35909
    FromStats_StreamSize : 45963520
    Menu
    00: 00: 00.000 : : Chapter 1
    00: 09: 04.169 : : Chapter 2


    Онлайн видео Человек-Паук



    Человек-Паук/Spider-Man: The Animated Series (1994-1998) BDRip [H.265/1080p-LQ] (Сезон 1-5, Серии 01-65 из 65)
    загрузка...
    Рейтинг →
     (голосов: 1, оценка 4/5, голосовать можно 1 раз )

    Другие торренты по теме:

  • Человек-Паук / Spider-Man (2002) BDRip [H.264 / 1080p] [hand made 60fps] скачать через торрент бесплатно
  • Человек-Паук / Spider-Man (2002) WEB-DL [H.264 / 2160p] скачать через торрент бесплатно
  • Человек-Паук / Spider-Man: The Animated Series (1994-1998) DVDRip [H.264] (Сезон 1-5, Серии 01-65 из 65)
  • Человек-паук / Spider-man (2002) BDRip [H.265 / 1080p-LQ]
  • Новый Человек-паук: Высокое напряжение / The Amazing Spider-Man 2 (2014) BDRip [576p] iPad
  • Новый Человек-паук: Высокое напряжение / The Amazing Spider-Man 2: Rise of Electro (2014) BDRemux [1080p]
  • Новый Человек-паук: Высокое напряжение / The Amazing Spider-Man 2: Rise of Electro (2014) HDRip [AVO]
  • Новый Человек-паук 2 / The Amazing Spider-Man 2 v1.2.0m (Offline) 1.2.0m [Ru / En] скачать через торрент бесплатно


    • Комментарии (0):

      Информация

      Информация

        Посетители, находящиеся в группе Гости, не могут оставлять комментарии в данной новости.

        ↓ Меню




        ↓ Опрос

        Вы добавили сайт в закладки?
        Да
        Нет


        Top 10 за месяц (Мультфильмы)