.
Авторизация | Регистрация
Хочешь лучшие торренты? Добавь свой email!
Добавить

Торрент скачать бесплатно

» » Симпсоны / The Simpsons (2017) WEB-DLRip (сезон 29, серии 1-4 из 13) Vo-production (Обновляемая) торрент скачать бесплатно




    Симпсоны / The Simpsons (2017) WEB-DLRip (сезон 29, серии 1-4 из 13) Vo-production (Обновляемая) торрент скачать бесплатно

    Опубликовал: Админ | Дата: 8-11-2017, 05:00 | Просмотров: 0

    Производство: США
    Жанр: Мультсериал
    Режиссер: Мэтт Гроунинг

    Описание

    Симпсоны живут в вымышленном городе Спрингфилд, со своим обществом и историей. Гомер - отец семейства, который дает плохие советы и работает инспектором безопасности на атомной электростанции; Мардж - любящая мать и жена, старается сохранить спокойствие в семье; Барт - 10 летний хулиган; Лиза - философский 8-летний ребенок; и Мэгги - младенец, который общается посредством соски.
    Релиз от: VO-Production
    Продолжительность: ~ 00: 22: 00 х серия
    Качество видео: WEB-DL 1080p
    Перевод: Многоголосый закадровый, любительский (VO-Production)
    Субтитры: Английские
    Реклама: Отсутствует
    Видео: Xvid, 720x400, ~1650 kbps
    Аудио 1: MP3, 2 ch, 128 kbps (Русский)
    Аудио 2: MP3, 2 ch, 128 kbps (Английский)

    Внимание! Раздача ведётся путём добавления новых серий; при каждом добавлении создаётся новый торрент.
    Чтобы начать докачку новой серии, пользователям необходимо сделать следующее:
    1. Остановить скачивание;
    2. Удалить старый торрент у себя из клиента (старые серии удалять не надо);
    3. Скачать новый торрент и запустить его у себя в клиенте вместо старого, при этом указать клиенту путь в старую папку куда и должно происходить скачивание новых серий. Ваш клиент при этом должен произвести хеширование (проверку) старой папки и будет докачивать только те серии, которых у вас ещё нет. Старые серии при этом не удаляются, а продолжают раздаваться! Eсли вы уже удалили старые серии, то предотвратить повторную закачку старых серий можно, отжав галочку в соответствующих местах при запуске нового торрента.

    Общее
    Полное имя : D: СериалыThe Simpsons (S29) VOThe.Simpsons.S29E03.WEB-DLRip.Rus.Eng.VO.avi
    Формат : AVI
    Формат/Информация : Audio Video Interleave
    Размер файла : 300 Мбайт
    Продолжительность : 21 м.
    Общий поток : 1989 Кбит/сек
    Программа кодирования : VirtualDubMod 1.5.10.3 |www.virtualdub-fr.org|| (build 2550/release)
    Библиотека кодирования : VirtualDubMod build 2550/release
    Видео
    Идентификатор : 0
    Формат : MPEG-4 Visual
    Профиль формата : Advanced Simple@L5
    Параметр BVOP формата : 1
    Параметр QPel формата : Нет
    Параметр GMC формата : Без точки перехода
    Параметр матрицы формата : Default (MPEG)
    Идентификатор кодека : XVID
    Идентификатор кодека/Подсказка : XviD
    Продолжительность : 21 м.
    Битрейт : 1719 Кбит/сек
    Ширина : 720 пикселей
    Высота : 400 пикселей
    Соотношение сторон : 16: 9
    Частота кадров : 23, 976 кадра/сек
    Цветовое пространство : YUV
    Субдискретизация насыщенности : 4: 2: 0
    Битовая глубина : 8 бит
    Тип развёртки : Прогрессивная
    Метод сжатия : С потерями
    Бит/(Пиксели*Кадры) : 0.249
    Размер потока : 259 Мбайт (86%)
    Библиотека кодирования : XviD 73
    Аудио #1
    Идентификатор : 1
    Формат : MPEG Audio
    Версия формата : Version 1
    Профиль формата : Layer 3
    Режим : Joint stereo
    Расширение режима : MS Stereo
    Идентификатор кодека : 55
    Идентификатор кодека/Подсказка : MP3
    Продолжительность : 21 м.
    Вид битрейта : Постоянный
    Битрейт : 128 Кбит/сек
    Каналы : 2 канала
    Частота : 48, 0 КГц
    Метод сжатия : С потерями
    Размер потока : 19, 3 Мбайт (6%)
    Выравнивание : Соединение по промежуткам
    Продолжительность промежутка : 42 мс. (1, 00 видеокадр)
    Время предзагрузки промежутка : 504 мс.
    Аудио #2
    Идентификатор : 2
    Формат : MPEG Audio
    Версия формата : Version 1
    Профиль формата : Layer 3
    Режим : Joint stereo
    Расширение режима : MS Stereo
    Идентификатор кодека : 55
    Идентификатор кодека/Подсказка : MP3
    Продолжительность : 21 м.
    Вид битрейта : Постоянный
    Битрейт : 128 Кбит/сек
    Каналы : 2 канала
    Частота : 48, 0 КГц
    Метод сжатия : С потерями
    Размер потока : 19, 3 Мбайт (6%)
    Выравнивание : Соединение по промежуткам
    Продолжительность промежутка : 42 мс. (1, 00 видеокадр)
    Время предзагрузки промежутка : 504 мс.

    Серия 1 – Сёрфсоны (англ. The Serfsons)
    Серия 2 – Спрингфилдское великолепие (англ. Springfield Splendor)
    Серия 3 - Отец свистуньи (англ. Whistler\'s Father)
    Серия 4 – Домик ужасов 28 (англ. Treehouse of Horror XXVIII)

    Скриншоты для ознакомления

    Все одноименные релизы в Клубе
    Время раздачи: C 09-00 до 23-00 (до появления первых 3-5 скачавших) /quote


    Онлайн видео Симпсоны



    Симпсоны/The Simpsons (2017) WEB-DLRip (сезон 29, серии 1-4 из 13) Vo-production (Обновляемая)
    загрузка...
    Рейтинг →
     (голосов: 1, оценка 5/5, голосовать можно 1 раз )

    Другие торренты по теме:

  • Симпсоны / The Simpsons (2014-2015) WEB-DLRip (Сезон 26, Серии 1-14 из 16) [VO-production] (Обновляемая) скачать через торрент бесплатно
  • Симпсоны / The Simpsons (2014) WEB-DL [H.264 / 720p-LQ] (сезон 26, серии 1-14 из 22) [OmskBird] (обновляемая) скачать через торрент бесплатно
  • Discovery: Разрушители легенд. Спецвыпуск Симпсоны / MythBusters. The Simpsons Special (2015) WEB-DL [H.264 / 720p-LQ] (Сезон 15, эпизод 01) Jetvis Studio скачать через торрент бесплатно
  • Discovery: Разрушители легенд. Спецвыпуск Симпсоны / MythBusters. The Simpsons Special (2015) WEB-DLRip (Сезон 15, эпизод 01) Jetvis Studio скачать через торрент бесплатно
  • Симпсоны / The Simpsons (2015) WEB-DL (27 сезон, 1 серия) [JetvisStudio] скачать через торрент бесплатно
  • Discovery: Разрушители легенд. Спецвыпуск Симпсоны / MythBusters. The Simpsons Special (2015) SATRip (Сезон 15, эпизод 01) [Discovery] скачать через торрент бесплатно
  • Симпсоны / The Simpsons (2015) WEB-DL [H.264 / 720p] (27 сезон, 1 серия из 22) [VO-Production] (Обновляемая) скачать через торрент бесплатно
  • Симпсоны / The Simpsons (2015) WEB-DLRip (сезон 27, серия 01 из 22) VO-production скачать через торрент бесплатно


    • Комментарии (0):

      Информация

      Информация

        Посетители, находящиеся в группе Гости, не могут оставлять комментарии в данной новости.

        ↓ Меню




        ↓ Опрос

        Вы добавили сайт в закладки?
        Да
        Нет


        Top 10 за месяц (Мультфильмы)