.
Авторизация | Регистрация
Хочешь лучшие торренты? Добавь свой email!
Добавить

Торрент скачать бесплатно

» » Эмоджи фильм / The Emoji Movie (2017) BDRip торрент скачать бесплатно




    Эмоджи фильм / The Emoji Movie (2017) BDRip торрент скачать бесплатно

    Опубликовал: Админ | Дата: 8-11-2017, 05:00 | Просмотров: 0

    Производство: США, Columbia Pictures, LStar Capital, Sony Pictures Animation
    Жанр: Мультфильм, Фантастика, Приключения, Комедия, Семейный
    Режиссер: Энтони Леондис
    Персонажи: ТиДжей Миллер, Джеймс Корден, Анна Фэрис, Майя Рудольф, Стивен Райт, Дженнифер Кулидж, Патрик Стюарт, Кристина Агилера, София Вергара, Рэйчел

    Описание

    Знаете ли вы, что внутри каждого смартфона есть красочный городок Текстополис, в котором живут эмоджи? И что они ужасно радуются, когда владелец телефона именно их выбирает для своего сообщения? Каждый из эмоджи отвечает лишь за одну эмоцию, и только Джин может выражать несколько эмоций сразу. Он очень хочет стать таким же, как и его собратья, и для этого вместе со своими друзьями пускается в увлекательное путешествие по приложениям телефона в поисках программы, которая поможет ему измениться. Неожиданно герои узнают о грозной опасности, нависшей над городом. Смогут ли друзья спасти Текстополис и всех его обитателей?

    Возраст: 6+ (зрителям, достигшим 6 лет)
    Рейтинг MPAA: PG (рекомендуется присутствие родителей)
    Дата мировой премьеры: 28 июля 2017
    Дата российской премьеры: 17 августа 2017, WDSSPR
    Релиз от: MegaPeer
    Продолжительность: 01: 26: 22
    Качество видео: BDRip | Blu-ray 1080p |
    Перевод: Дублированный | iTunes
    Субтитры: Отстутствуют
    Видео: Xvid, 720x304, ~1964 Kbps
    Аудио: AC3, 6 ch, 384 Kbps

    Общее
    Полное имя : D: ВидеоtorrrentThe.Emoji.Movie.2017.BDRip.1.42Gb.MegaPeer.avi
    Формат : AVI
    Формат/Информация : Audio Video Interleave
    Размер файла : 1, 42 Гбайт
    Продолжительность : 1 ч. 26 м.
    Общий поток : 2357 Кбит/сек
    Программа кодирования : VirtualDubMod 1.5.10.2 (build 2540/release)
    Библиотека кодирования : VirtualDubMod build 2540/release
    Видео
    Идентификатор : 0
    Формат : MPEG-4 Visual
    Профиль формата : Advanced Simple@L5
    Параметр BVOP формата : 1
    Параметр QPel формата : Нет
    Параметр GMC формата : Без точки перехода
    Параметр матрицы формата : Выборочная
    Идентификатор кодека : XVID
    Идентификатор кодека/Подсказка : XviD
    Продолжительность : 1 ч. 26 м.
    Битрейт : 1964 Кбит/сек
    Ширина : 720 пикселей
    Высота : 304 пикселя
    Соотношение сторон : 2, 35: 1
    Частота кадров : 23, 976 (24000/1001) кадра/сек
    Цветовое пространство : YUV
    Субдискретизация насыщенности : 4: 2: 0
    Битовая глубина : 8 бит
    Тип развёртки : Прогрессивная
    Метод сжатия : С потерями
    Бит/(Пиксели*Кадры) : 0.374
    Размер потока : 1, 18 Гбайт (83%)
    Библиотека кодирования : XviD 73
    Аудио
    Идентификатор : 1
    Формат : AC-3
    Формат/Информация : Audio Coding 3
    Параметр Endianness формата : Big
    Идентификатор кодека : 2000
    Продолжительность : 1 ч. 26 м.
    Вид битрейта : Постоянный
    Битрейт : 384 Кбит/сек
    Каналы : 6 каналов
    Расположение каналов : Front: L C R, Side: L R, LFE
    Частота : 48, 0 КГц
    Частота кадров : 31, 250 кадров/сек (1536 SPF)
    Битовая глубина : 16 бит
    Метод сжатия : С потерями
    Размер потока : 237 Мбайт (16%)
    Выравнивание : Разделение по промежуткам
    Продолжительность промежутка : 42 мс. (1, 00 видеокадр)
    Время предзагрузки промежутка : 500 мс.
    ServiceKind/String : Complete Main

    Скриншоты для ознакомления



    Все одноименные релизы в Клубе
    Время раздачи: 24/7 (до появления первых 3-5 скачавших)


    Онлайн видео Эмоджи фильм



    Эмоджи фильм/The Emoji Movie (2017) BDRip
    загрузка...
    Рейтинг →
     (голосов: 1, оценка 5/5, голосовать можно 1 раз )

    Другие торренты по теме:

  • Эмоджи фильм / The Emoji Movie (2017) TS [AD]
  • Эмоджи фильм / The Emoji Movie (2017) WEBRip [H.264 / 720p-LQ] [EN / KOR Sub]
  • Эмоджи фильм / The Emoji Movie (2017) HDTVRip [H.264 / 720p-LQ] [AD]
  • Эмоджи фильм / The Emoji Movie (2017) BDRip [H.264 / 1080p]
  • Эмоджи фильм / The Emoji Movie (2017) BDRip [H.264]
  • Эмоджи фильм / The Emoji Movie (2017) BDRip [H.264 / 720p-LQ]


    • Комментарии (0):

      Информация

      Информация

        Посетители, находящиеся в группе Гости, не могут оставлять комментарии в данной новости.

        ↓ Меню




        ↓ Опрос

        Вы добавили сайт в закладки?
        Да
        Нет


        Top 10 за месяц (Мультфильмы)