.
Авторизация | Регистрация
Хочешь лучшие торренты? Добавь свой email!
Добавить

Торрент скачать бесплатно

» » Лего Фильм: Бэтмен / The LEGO Batman Movie (2017) UHD BDRemux [H.265 / 2160p] [4K, HDR, 10-bit] торрент скачать бесплатно




    Лего Фильм: Бэтмен / The LEGO Batman Movie (2017) UHD BDRemux [H.265 / 2160p] [4K, HDR, 10-bit] торрент скачать бесплатно

    Опубликовал: Админ | Дата: 8-11-2017, 05:00 | Просмотров: 0

    Производство: США, Дания/DC Entertainment, LEGO System A/S
    Жанр: мультфильм, фэнтези, боевик, комедия, приключения, семейный
    Режиссер: Крис МакКей
    Продюсер: Уилл Аллегра, Мэттью Эштон, Джон Бертон
    Персонажи: Уилл Арнетт, Майкл Сера, Розарио Доусон, Рэйф Файнс, Зак Галифианакис, Дженни Слейт, Джейсон Манцукас, Конан О’Брайен, Даг Бенсон

    Описание

    Готэму вновь грозит опасность. И на его стражу становится единственный герой, которого заслуживает этот город — Бэтмен, альтер-эго миллиардера Брюса Уэйна, живущего в своем огромном родовом поместье вместе с дворецким Альфредом. Но в этот раз супергерой вынужден взять в напарники парня по имени Дик Грейсон, которого он, сам того не помня, усыновил на одном из светских приемов. Новоиспеченный Робин составит Бэтмену компанию в борьбе с его заклятым врагом Джокером, сбежавшим из психиатрической больницы Аркхем, а также Харли Куинн, готовой на самые сумасшедшие злодеяния, чтобы оставить в дураках всю Лигу Справедливости, включая Бэтгерл.

    Возраст: 6+ (зрителям, достигшим 6 лет)
    Рейтинг MPAA: PG (рекомендуется присутствие родителей)
    Дата мировой премьеры: 1 февраля 2017
    Дата премьеры в России: 9 февраля 2017, Каро-Премьер 3D

    Релиз от: HDRINVASION, ExKinoRay
    Продолжительность: 01: 44: 30
    Качество: UHD BDRemux (HDR)
    Перевод: Дублированный (Лицензия BD CEE)
    Субтитры: Русские (forced, full), английские
    Видео: HEVC/H.265, 3840x2160p, (16: 9), 43.8 Mb/s, 23.976 fps
    Аудио: AC3, 6 ch, 448 kbps - Русский
    Аудио: TrueHD-Atmos, 8 ch, 3940 kbps - Английский
    Аудио: AC3, 6 ch, 448 kbps - Английский
    Исходный диск на Blu-ray.com
    Просмотр 4K HDR-контента на ПК
    General
    Unique ID : 174450436461011620989446726010115923037 (0x833DEE9390BAA044848CD98204B71C5D)
    Complete name : G: VideoSSDThe.LEGO.Batman.Movie.2017.BDREMUX.2160p.4K.UltraHD.HEVC.HDR.ExKinoRay.mkv
    Format : Matroska
    Format version : Version 4/Version 2
    File size : 35.5 GiB
    Duration : 1 h 44 min
    Overall bit rate mode : Variable
    Overall bit rate : 48.7 Mb/s
    Encoded date : UTC 2017-10-24 22: 59: 10
    Writing application : mkvmerge v17.0.0 (\'Be Ur Friend\') 64-bit
    Writing library : libebml v1.3.5 + libmatroska v1.4.8
    Video
    ID : 1
    Format : HEVC
    Format/Info : High Efficiency Video Coding
    Format profile : Main10@L5.1@High
    Codec ID : V_MPEGH/ISO/HEVC
    Duration : 1 h 44 min
    Bit rate : 43.8 Mb/s
    Width : 3 840 pixels
    Height : 2 160 pixels
    Display aspect ratio : 16: 9
    Frame rate mode : Constant
    Frame rate : 23.976 (24000/1001) FPS
    Color space : YUV
    Chroma subsampling : 4: 2: 0 (Type 2)
    Bit depth : 10 bits
    Bits/(Pixel*Frame) : 0.220
    Stream size : 32.0 GiB (90%)
    Language : English
    Default : Yes
    Forced : No
    Color range : Limited
    Color primaries : BT.2020
    Transfer characteristics : PQ
    Matrix coefficients : BT.2020 non-constant
    Mastering display color pri : R: x=0.680000 y=0.320000, G: x=0.265000 y=0.690000, B: x=0.150000 y=0.060000, White point: x=0.312700 y=0.329000
    Mastering display luminance : min: 0.0050 cd/m2, max: 4000.0000 cd/m2
    Maximum Content Light Level : 500 cd/m2
    Maximum Frame-Average Light : 200 cd/m2
    Audio #1
    ID : 2
    Format : AC-3
    Format/Info : Audio Coding 3
    Format settings, Endianness : Big
    Codec ID : A_AC3
    Duration : 1 h 44 min
    Bit rate mode : Constant
    Bit rate : 448 kb/s
    Channel(s) : 6 channels
    Channel positions : Front: L C R, Side: L R, LFE
    Sampling rate : 48.0 kHz
    Frame rate : 31.250 FPS (1536 SPF)
    Bit depth : 16 bits
    Compression mode : Lossy
    Stream size : 335 MiB (1%)
    Title : Dub License
    Language : Russian
    Service kind : Complete Main
    Default : Yes
    Forced : No
    Audio #2
    ID : 3
    Format : TrueHD
    Format profile : TrueHD+Atmos/TrueHD
    Codec ID : A_TRUEHD
    Duration : 1 h 44 min
    Bit rate mode : Variable
    Bit rate : 3 940 kb/s
    Maximum bit rate : 6 309 kb/s
    Channel(s) : Object Based/8 channels
    Channel positions : Object Based/Front: L C R, Side: L R, Back: L R, LFE
    Sampling rate : /48.0 kHz
    Frame rate : 1 200.000 FPS (40 SPF)
    Compression mode : Lossless
    Stream size : 2.88 GiB (8%)
    Title : Original
    Language : English
    Default : No
    Forced : No
    Audio #3
    ID : 4
    Format : AC-3
    Format/Info : Audio Coding 3
    Format settings, Endianness : Big
    Codec ID : A_AC3
    Duration : 1 h 44 min
    Bit rate mode : Constant
    Bit rate : 448 kb/s
    Channel(s) : 6 channels
    Channel positions : Front: L C R, Side: L R, LFE
    Sampling rate : 48.0 kHz
    Frame rate : 31.250 FPS (1536 SPF)
    Bit depth : 16 bits
    Compression mode : Lossy
    Stream size : 335 MiB (1%)
    Language : English
    Service kind : Complete Main
    Default : No
    Forced : No
    Text #1
    ID : 5
    Format : UTF-8
    Codec ID : S_TEXT/UTF8
    Codec ID/Info : UTF-8 Plain Text
    Duration : 1 h 36 min
    Bit rate : 4 b/s
    Count of elements : 74
    Stream size : 2.91 KiB (0%)
    Title : Forced
    Language : Russian
    Default : Yes
    Forced : No
    Text #2
    ID : 6
    Format : UTF-8
    Codec ID : S_TEXT/UTF8
    Codec ID/Info : UTF-8 Plain Text
    Duration : 1 h 44 min
    Bit rate : 130 b/s
    Count of elements : 2178
    Stream size : 99.7 KiB (0%)
    Title : Full
    Language : Russian
    Default : No
    Forced : No
    Text #3
    ID : 7
    Format : UTF-8
    Codec ID : S_TEXT/UTF8
    Codec ID/Info : UTF-8 Plain Text
    Duration : 1 h 44 min
    Bit rate : 87 b/s
    Count of elements : 2167
    Stream size : 66.6 KiB (0%)
    Title : Full
    Language : English
    Default : No
    Forced : No
    Text #4
    ID : 8
    Format : UTF-8
    Codec ID : S_TEXT/UTF8
    Codec ID/Info : UTF-8 Plain Text
    Duration : 1 h 44 min
    Bit rate : 95 b/s
    Count of elements : 2341
    Stream size : 73.0 KiB (0%)
    Title : SDH
    Language : English
    Default : No
    Forced : No
    Menu
    00: 00: 00.000 : en: 00: 00: 00.000
    00: 12: 56.526 : en: 00: 12: 56.526
    00: 22: 57.793 : en: 00: 22: 57.793
    00: 32: 32.701 : en: 00: 32: 32.701
    00: 40: 58.539 : en: 00: 40: 58.539
    00: 50: 12.593 : en: 00: 50: 12.593
    01: 00: 26.456 : en: 01: 00: 26.456
    01: 10: 59.505 : en: 01: 10: 59.505
    01: 19: 30.975 : en: 01: 19: 30.975
    01: 27: 18.400 : en: 01: 27: 18.400
    01: 36: 27.156 : en: 01: 36: 27.156
    YouTube

    Скриншоты для ознакомления


    Релизы мультфильма Лего Фильм: Бэтмен/The LEGO Batman Movie на NNM Club
    Время раздачи: с 9: 00 до 23: 00


    Онлайн видео Лего Фильм: Бэтмен



    Лего Фильм: Бэтмен/The LEGO Batman Movie (2017) UHD BDRemux [H.265/2160p] [4K, HDR, 10-bit]
    загрузка...
    Рейтинг →
     (голосов: 1, оценка 5/5, голосовать можно 1 раз )

    Другие торренты по теме:



      Комментарии (0):

      Информация

      Информация

        Посетители, находящиеся в группе Гости, не могут оставлять комментарии в данной новости.

        ↓ Меню




        ↓ Опрос

        Вы добавили сайт в закладки?
        Да
        Нет


        Top 10 за месяц (Мультфильмы)