.
Авторизация | Регистрация
Хочешь лучшие торренты? Добавь свой email!
Добавить

Торрент скачать бесплатно

» » Эмоджи фильм / The Emoji Movie (2017) BDRip [H.264 / 1080p] торрент скачать бесплатно




    Эмоджи фильм / The Emoji Movie (2017) BDRip [H.264 / 1080p] торрент скачать бесплатно

    Опубликовал: Админ | Дата: 8-11-2017, 05:00 | Просмотров: 0

    Производство: США, Columbia Pictures, LStar Capital, Sony Pictures Animation
    Жанр: Кукольный
    Режиссер: Энтони Леондис
    Персонажи: ТиДжей Миллер, Джеймс Корден, Анна Фэрис, Майя Рудольф, Стивен Райт, Дженнифер Кулидж, Патрик Стюарт, Кристина Агилера, София Вергара, Рэйчел

    Описание

    Знаете ли вы, что внутри каждого смартфона есть красочный городок Текстополис, в котором живут эмоджи? И что они ужасно радуются, когда владелец телефона именно их выбирает для своего сообщения? Каждый из эмоджи отвечает лишь за одну эмоцию, и только Джин может выражать несколько эмоций сразу. Он очень хочет стать таким же, как и его собратья, и для этого вместе со своими друзьями пускается в увлекательное путешествие по приложениям телефона в поисках программы, которая поможет ему измениться. Неожиданно герои узнают о грозной опасности, нависшей над городом. Смогут ли друзья спасти Текстополис и всех его обитателей?

    Возраст: 6+ (зрителям, достигшим 6 лет)
    Рейтинг MPAA: PG (рекомендуется присутствие родителей)
    Дата мировой премьеры: 28 июля 2017
    Дата российской премьеры: 17 августа 2017, WDSSPR
    Продолжительность: 01: 26: 22
    Качество видео: BDRip
    Перевод: Дублированный (iTunes)
    Субтитры: Английские, испанские, французские
    Видео: AVC/H.264, 1920x804, ~12, 3 Mbps
    Аудио 1: AC3, 6 ch, 384 Kbps - Русский
    Аудио 2: AC3, 6 ch, 640 Kbps - Английский

    The.Emoji.Movie.2017.BDRip1080p.mkv
    Формат : Matroska
    Версия формата : Version 2
    Размер файла : 8, 22 Гбайт
    Продолжительность : 1 ч. 26 м.
    Общий поток : 13, 6 Мбит/сек
    Дата кодирования : UTC 2017-11-07 10: 46: 28
    Программа кодирования : mkvmerge v7.8.0 (\'River Man\') 32bit built on Apr 3 2015 12: 11: 22
    Библиотека кодирования : libebml v1.3.1 + libmatroska v1.4.2
    Видео
    Идентификатор : 1
    Формат : AVC
    Формат/Информация : Advanced Video Codec
    Профиль формата : High@L4.1
    Настройки формата : CABAC/5 Ref Frames
    Параметр CABAC формата : Да
    Параметр RefFrames формата : 5 кадров
    Идентификатор кодека : V_MPEG4/ISO/AVC
    Продолжительность : 1 ч. 26 м.
    Битрейт : 12, 3 Мбит/сек
    Ширина : 1920 пикселей
    Высота : 804 пикселя
    Соотношение сторон : 2, 40: 1
    Режим частоты кадров : Постоянный
    Частота кадров : 23, 976 (24000/1001) кадра/сек
    Цветовое пространство : YUV
    Субдискретизация насыщенности : 4: 2: 0
    Битовая глубина : 8 бит
    Тип развёртки : Прогрессивная
    Бит/(Пиксели*Кадры) : 0.333
    Размер потока : 7, 43 Гбайт (90%)
    Заголовок : FraMeSTor/MPEG-4 AVC Video/12511 kbps/23.976 fps/High Profile 4.1
    Библиотека кодирования : x264 core 142 r2431+42 c69a006 tMod 8-bit@4: 2: 0 X86_64
    Настройки программы : cabac=1/ref=5/deblock=1: -2: -2/analyse=0x3: 0x113/me=umh/subme=10/psy=1/fade_compensate=0.00/psy_rd=0.95: 0.00/mixed_ref=1/me_range=48/chroma_me=1/trellis=2/8x8dct=1/cqm=0/deadzone=6, 11/fast_pskip=0/chroma_qp_offset=-2/threads=12/lookahead_threads=2/sliced_threads=0/nr=0/decimate=1/interlaced=0/bluray_compat=0/constrained_intra=0/fgo=0/bframes=7/b_pyramid=2/b_adapt=2/b_bias=0/direct=3/weightb=1/open_gop=0/weightp=2/keyint=240/keyint_min=23/scenecut=40/intra_refresh=0/rc_lookahead=120/rc=crf/mbtree=0/crf=14.2500/qcomp=0.60/qpmin=0: 0: 0/qpmax=35: 35: 35/qpstep=4/vbv_maxrate=30000/vbv_bufsize=38000/crf_max=0.0/nal_hrd=none/filler=0/ip_ratio=1.40/pb_ratio=1.30/aq=4: 0.95/aq-sensitivity=10.00/aq-factor=1.00: 1.00: 1.00/aq2=0/aq3=0
    Язык : English
    Default : Да
    Forced : Нет
    Цветовой диапазон : Limited
    Основные цвета : BT.709
    Характеристики трансфера : BT.709
    Коэффициенты матрицы : BT.709
    Statistics Tags Issue : mkvmerge v15.0.0 (\'Duel with the Devil\') 64-bit 2017-10-18 15: 35: 24/mkvmerge v7.8.0 (\'River Man\') 32bit built on Apr 3 2015 12: 11: 22 2017-11-07 10: 46: 28
    FromStats_BitRate : 12511873
    FromStats_Duration : 01: 26: 22.177000000
    FromStats_FrameCount : 124248
    FromStats_StreamSize : 8104842824
    Аудио #1
    Идентификатор : 2
    Формат : AC-3
    Формат/Информация : Audio Coding 3
    Идентификатор кодека : A_AC3
    Продолжительность : 1 ч. 26 м.
    Вид битрейта : Постоянный
    Битрейт : 384 Кбит/сек
    Каналы : 6 каналов
    Расположение каналов : Front: L C R, Side: L R, LFE
    Частота : 48, 0 КГц
    Частота кадров : 31, 250 кадров/сек (1536 SPF)
    Битовая глубина : 16 бит
    Метод сжатия : С потерями
    Размер потока : 237 Мбайт (3%)
    Заголовок : iTunes
    Язык : Russian
    ServiceKind/String : Complete Main
    Default : Да
    Forced : Нет
    Аудио #2
    Идентификатор : 3
    Формат : AC-3
    Формат/Информация : Audio Coding 3
    Идентификатор кодека : A_AC3
    Продолжительность : 1 ч. 26 м.
    Вид битрейта : Постоянный
    Битрейт : 640 Кбит/сек
    Каналы : 6 каналов
    Расположение каналов : Front: L C R, Side: L R, LFE
    Частота : 48, 0 КГц
    Частота кадров : 31, 250 кадров/сек (1536 SPF)
    Битовая глубина : 16 бит
    Метод сжатия : С потерями
    Размер потока : 395 Мбайт (5%)
    Язык : English
    ServiceKind/String : Complete Main
    Default : Нет
    Forced : Нет
    Текст #1
    Идентификатор : 4
    Формат : PGS
    Режим смешивания : zlib
    Идентификатор кодека : S_HDMV/PGS
    Идентификатор кодека/Информация : Picture based subtitle format used on BDs/HD-DVDs
    Заголовок : English (SDH)
    Язык : English
    Default : Нет
    Forced : Нет
    Statistics Tags Issue : mkvmerge v15.0.0 (\'Duel with the Devil\') 64-bit 2017-10-18 15: 35: 24/mkvmerge v7.8.0 (\'River Man\') 32bit built on Apr 3 2015 12: 11: 22 2017-11-07 10: 46: 28
    FromStats_BitRate : 67681
    FromStats_Duration : 01: 20: 10.306000000
    FromStats_FrameCount : 3320
    FromStats_StreamSize : 40696079
    Текст #2
    Идентификатор : 5
    Формат : PGS
    Режим смешивания : zlib
    Идентификатор кодека : S_HDMV/PGS
    Идентификатор кодека/Информация : Picture based subtitle format used on BDs/HD-DVDs
    Заголовок : French
    Язык : French
    Default : Нет
    Forced : Нет
    Statistics Tags Issue : mkvmerge v15.0.0 (\'Duel with the Devil\') 64-bit 2017-10-18 15: 35: 24/mkvmerge v7.8.0 (\'River Man\') 32bit built on Apr 3 2015 12: 11: 22 2017-11-07 10: 46: 28
    FromStats_BitRate : 36150
    FromStats_Duration : 01: 26: 18.090000000
    FromStats_FrameCount : 2460
    FromStats_StreamSize : 23398923
    Текст #3
    Идентификатор : 6
    Формат : PGS
    Режим смешивания : zlib
    Идентификатор кодека : S_HDMV/PGS
    Идентификатор кодека/Информация : Picture based subtitle format used on BDs/HD-DVDs
    Заголовок : Spanish
    Язык : Spanish
    Default : Нет
    Forced : Нет
    Statistics Tags Issue : mkvmerge v15.0.0 (\'Duel with the Devil\') 64-bit 2017-10-18 15: 35: 24/mkvmerge v7.8.0 (\'River Man\') 32bit built on Apr 3 2015 12: 11: 22 2017-11-07 10: 46: 28
    FromStats_BitRate : 43407
    FromStats_Duration : 01: 26: 18.090000000
    FromStats_FrameCount : 2304
    FromStats_StreamSize : 28095937
    Меню
    00: 00: 00.000 : : Chapter 01
    00: 05: 12.478 : : Chapter 02
    00: 11: 38.531 : : Chapter 03
    00: 15: 49.406 : : Chapter 04
    00: 22: 24.051 : : Chapter 05
    00: 26: 48.607 : : Chapter 06
    00: 32: 11.137 : : Chapter 07
    00: 39: 15.186 : : Chapter 08
    00: 44: 16.695 : : Chapter 09
    00: 48: 43.128 : : Chapter 10
    00: 53: 07.392 : : Chapter 11
    00: 58: 19.370 : : Chapter 12
    01: 02: 35.751 : : Chapter 13
    01: 07: 18.909 : : Chapter 14
    01: 11: 54.893 : : Chapter 15
    01: 16: 05.477 : : Chapter 16

    Скриншоты для ознакомления



    Все одноименные релизы в Клубе
    Время раздачи: 24/7 (до появления первых 3-5 скачавших)


    Онлайн видео Эмоджи фильм



    Эмоджи фильм/The Emoji Movie (2017) BDRip [H.264/1080p]
    загрузка...
    Рейтинг →
     (голосов: 1, оценка 3/5, голосовать можно 1 раз )

    Другие торренты по теме:

  • Эмоджи фильм / The Emoji Movie (2017) TS [AD]
  • Эмоджи фильм / The Emoji Movie (2017) WEBRip [H.264 / 720p-LQ] [EN / KOR Sub]
  • Эмоджи фильм / The Emoji Movie (2017) HDTVRip [H.264 / 720p-LQ] [AD]
  • Эмоджи фильм / The Emoji Movie (2017) BDRip [H.264]
  • Эмоджи фильм / The Emoji Movie (2017) BDRip
  • Эмоджи фильм / The Emoji Movie (2017) BDRip [H.264 / 720p-LQ]


    • Комментарии (0):

      Информация

      Информация

        Посетители, находящиеся в группе Гости, не могут оставлять комментарии в данной новости.

        ↓ Меню




        ↓ Опрос

        Вы добавили сайт в закладки?
        Да
        Нет


        Top 10 за месяц (Мультфильмы)