.
Авторизация | Регистрация
Хочешь лучшие торренты? Добавь свой email!
Добавить

Торрент скачать бесплатно

» » Щенячий патруль / PAW Patrol (2016) WEB-DL [H.264 / 720p-LQ] (Сезон 3, 9 серий из 26) [UKR, EN] торрент скачать бесплатно




    Щенячий патруль / PAW Patrol (2016) WEB-DL [H.264 / 720p-LQ] (Сезон 3, 9 серий из 26) [UKR, EN] торрент скачать бесплатно

    Опубликовал: Админ | Дата: 7-11-2017, 05:00 | Просмотров: 0

    Производство: Канада, США
    Жанр: Детский, Приключения
    Режиссер: Кейт Чепмэн

    Описание

    Зик Райдер — озорной десятилетний мальчик, талантливый не по годам. Он отлично разбирается в электронике и технике и умело с ней обращается. Его жизнь насыщена и полна бесстрашных приключений. Вместе с шестью веселыми и храбрыми щенятами он создал отважную команду под названием Щенячий патруль.
    Сообща они выполняют спасательные миссии: с удовольствием помогают одинокому котенку, попавшему в беду, или освобождают состав поезда из-под оползня. Любое дело им по плечу. Каждый из щенков команды обладает особым характером и уникальными способностями. Зик и его четвероногие товарищи делают немало благих дел и являются по-настоящему смелыми спасателями.

    Релиз от: sergiyko
    Продолжительность: 00: 23: 22 серия
    Качество видео: WEB-DL
    Перевод: Отсутствует
    Язык озвучки: украинский (дубляж ТК Плюс Плюс), английский
    Субтитры: английские
    Видео: AVC/H.264, 1280х718, ~3900 Kbps
    Аудио 1: AC3, 2 ch, 192 Kbps
    Аудио 2: AAC, 2 ch, 160 Kbps

    General
    Unique ID : 176643639223056401488690438302427038617 (0x84E453D2397BD1DCBA39D1403ABCC399)
    Complete name : E: MULTFILMSPaw Patrol S03 720p WEB-DLPaw.Patrol.S03E01.Pups Find a Genie-Pups Save a Tightrope Walker.720p.WEB-DL.Ukr.Eng.mkv
    Format : Matroska
    Format version : Version 4/Version 2
    File size : 714 MiB
    Duration : 23 min 22 s
    Overall bit rate : 4 271 kb/s
    Movie name : Paw Patrol S03 720p WEB-DL by sergiyko
    Encoded date : UTC 2017-10-29 07: 36: 53
    Writing application : mkvmerge v17.0.0 (\'Be Ur Friend\') 64-bit
    Writing library : libebml v1.3.5 + libmatroska v1.4.8
    Cover : Yes
    Attachments : cover.jpg
    Video
    ID : 1
    Format : AVC
    Format/Info : Advanced Video Codec
    Format profile : High@L3.1
    Format settings, CABAC : No
    Format settings, RefFrames : 2 frames
    Codec ID : V_MPEG4/ISO/AVC
    Duration : 23 min 22 s
    Bit rate : 3 919 kb/s
    Width : 1 280 pixels
    Height : 718 pixels
    Display aspect ratio : 16: 9
    Frame rate mode : Constant
    Frame rate : 23.976 (24000/1001) FPS
    Color space : YUV
    Chroma subsampling : 4: 2: 0
    Bit depth : 8 bits
    Scan type : Progressive
    Bits/(Pixel*Frame) : 0.178
    Stream size : 655 MiB (92%)
    Title : S03E01 Pups Find a Genie-Pups Save a Tightrope Walker
    Language : English
    Default : Yes
    Forced : No
    Color range : Limited
    Color primaries : BT.709
    Transfer characteristics : BT.709
    Matrix coefficients : BT.709
    Audio #1
    ID : 2
    Format : AC-3
    Format/Info : Audio Coding 3
    Format settings, Endianness : Big
    Codec ID : A_AC3
    Duration : 23 min 22 s
    Bit rate mode : Constant
    Bit rate : 192 kb/s
    Channel(s) : 2 channels
    Channel positions : Front: L R
    Sampling rate : 48.0 kHz
    Frame rate : 31.250 FPS (1536 SPF)
    Bit depth : 16 bits
    Compression mode : Lossy
    Stream size : 32.1 MiB (4%)
    Title : DUB AC3 2ch | ПлюсПлюс
    Language : Ukrainian
    Service kind : Complete Main
    Default : Yes
    Forced : Yes
    Audio #2
    ID : 3
    Format : AAC
    Format/Info : Advanced Audio Codec
    Format profile : LC
    Codec ID : A_AAC
    Duration : 23 min 22 s
    Bit rate : 157 kb/s
    Channel(s) : 2 channels
    Channel positions : Front: L R
    Sampling rate : 48.0 kHz
    Frame rate : 46.875 FPS (1024 SPF)
    Compression mode : Lossy
    Stream size : 26.2 MiB (4%)
    Title : Original
    Language : English
    Default : No
    Forced : No
    Text
    ID : 4
    Format : UTF-8
    Codec ID : S_TEXT/UTF8
    Codec ID/Info : UTF-8 Plain Text
    Duration : 22 min 58 s
    Bit rate : 111 b/s
    Count of elements : 522
    Stream size : 18.7 KiB (0%)
    Language : English
    Default : No
    Forced : No


    Онлайн видео Щенячий патруль



    Щенячий патруль/PAW Patrol (2016) WEB-DL [H.264/720p-LQ] (Сезон 3, 9 серий из 26) [UKR, EN]
    загрузка...
    Рейтинг →
     (голосов: 1, оценка 4/5, голосовать можно 1 раз )

    Другие торренты по теме:

  • Щенячий патруль / PAW Patrol (2013) WEB-DL [720p] (Сезон 1, Серии 1-25 из 26)
  • Щенячий патруль / PAW Patrol (2014 - 2015) HDTVRip [1080i] (Сезон 2, Серии 1-26 из 26)
  • Щенячий патруль / PAW Patrol (2014 - 2015) SATRip (Сезон 2, Серии 1-22 из 26)
  • Подборка | Раскраски Щенячий патруль (2016) [JPЕG]
  • Щенячий патруль / PAW Patrol (2015 - 2016) HDTVRip [1080i] (Сезон 3, Серии 1-5 из )
  • Щенячий патруль / PAW Patrol (2015 - 2016) HDTVRip (Сезон 3, Серии 1-5 из )
  • Щенячий патруль / PAW Patrol (2013) HDTVRip [H.264 / 720p-LQ] (Сезон 1, серий 26 из 26) [UKR, EN]
  • Щенячий патруль / PAW Patrol (2014) HDTVRip [H.264 / 720p-LQ] (Сезон 2, серий 26 из 26) [UKR, EN]


    • Комментарии (0):

      Информация

      Информация

        Посетители, находящиеся в группе Гости, не могут оставлять комментарии в данной новости.

        ↓ Меню




        ↓ Опрос

        Вы добавили сайт в закладки?
        Да
        Нет


        Top 10 за месяц (Мультфильмы)