.
Авторизация | Регистрация
Хочешь лучшие торренты? Добавь свой email!
Добавить

Торрент скачать бесплатно

» » Тачки 3 / Cars 3 (2017) BDRemux [H.264 / 1080p] торрент скачать бесплатно




    Тачки 3 / Cars 3 (2017) BDRemux [H.264 / 1080p] торрент скачать бесплатно

    Опубликовал: Админ | Дата: 7-11-2017, 05:00 | Просмотров: 0

    Производство: США, Walt Disney Pictures, Pixar Animation Studios
    Жанр: Комедия, приключения, семейный, спорт
    Режиссер: Джон Лассетер, Джо Рэнфт
    Продюсер: Джон Лассетер, Кевин Реэр, Андреа Уоррен

    Актеры
    Оуэн Уилсон, Пол Ньюман, Бонни Хант, Ларри Кейбл Гай, Чич Марин, Тони Шэлоуб, Гуидо Куарони, Дженифер Льюис, Пол Дули, Майкл Уоллис

    Описание

    Встречайте самого знаменитого гонщика всех времен, легенду гоночного трека Молнию Маккуина!
    Герой все еще продолжает показывать лучшие результаты на всех турнирах, однако победы даются ему не так легко, а конкуренция становится все жестче. Молнию Маккуина ждут захватывающие приключения, где он встретит новых друзей, а также поймет, что не только скорость и мощность мотора делают гонщика чемпионом.

    Возраст: 6+ (зрителям, достигшим 6 лет)
    Рейтинг MPAA: G (нет возрастных ограничений)
    Дата мировой премьеры: 10 июня 2017
    Дата российской премьеры: 15 июня 2017, WDSSPR

    Релиз от: MR Sergei
    Продолжительность: 01: 42: 25
    Качество видео: BDRemux 1080p
    Перевод: Дублированный (iTunes)
    Субтитры: Русские (Full), английские (Full, SDH, SDH-Coored, Commentary)
    Видео: AVC/H.264, 1920x1080 (16: 9), 21637 kbps, 23.976 fps
    Аудио #1: AC-3, 5.1, 48 kHz, 384 kbps, DN -5dB | Русский
    Аудио #2: DTS-HD MA, 7.1, 48 kHz, 4415 kbps, 24-bit | Английский

    Общее
    Уникальный идентификатор : 237930205774051424485419862066397781264 (0xB2FFB0D819F7C78DB83DA49DC6C11D10)
    Полное имя : D: ФильмыTachki.3.2017.BDRemux.1080p.NNMClub.mkv
    Формат : Matroska
    Версия формата : Version 4/Version 2
    Размер файла : 18, 9 Гбайт
    Продолжительность : 1 ч. 42 м.
    Режим общего битрейта : Переменный
    Общий поток : 26, 4 Мбит/сек
    Название фильма : MR Sergei for NoNaMe Club
    Дата кодирования : UTC 2017-11-06 05: 11: 41
    Программа кодирования : mkvmerge v17.0.0 (\'Be Ur Friend\') 64-bit
    Библиотека кодирования : libebml v1.3.5 + libmatroska v1.4.8
    Attachments : Cars-3.jpg
    Видео
    Идентификатор : 1
    Формат : AVC
    Формат/Информация : Advanced Video Codec
    Профиль формата : High@L4.1
    Настройки формата : CABAC/4 Ref Frames
    Параметр CABAC формата : Да
    Параметр RefFrames формата : 4 кадра
    Параметр GOP формата : M=1, N=12
    Идентификатор кодека : V_MPEG4/ISO/AVC
    Продолжительность : 1 ч. 42 м.
    Вид битрейта : Переменный
    Битрейт : 21, 6 Мбит/сек
    Максимальный битрейт : 32, 0 Мбит/сек
    Ширина : 1920 пикселей
    Высота : 1080 пикселей
    Соотношение сторон : 16: 9
    Режим частоты кадров : Постоянный
    Частота кадров : 23, 976 (24000/1001) кадра/сек
    Цветовое пространство : YUV
    Субдискретизация насыщенности : 4: 2: 0
    Битовая глубина : 8 бит
    Тип развёртки : Прогрессивная
    Бит/(Пиксели*Кадры) : 0.435
    Размер потока : 15, 5 Гбайт (82%)
    Язык : English
    Default : Да
    Forced : Нет
    Аудио #1
    Идентификатор : 2
    Формат : AC-3
    Формат/Информация : Audio Coding 3
    Идентификатор кодека : A_AC3
    Продолжительность : 1 ч. 42 м.
    Вид битрейта : Постоянный
    Битрейт : 384 Кбит/сек
    Каналы : 6 каналов
    Расположение каналов : Front: L C R, Side: L R, LFE
    Частота : 48, 0 КГц
    Частота кадров : 31, 250 кадров/сек (1536 SPF)
    Битовая глубина : 16 бит
    Метод сжатия : С потерями
    Размер потока : 281 Мбайт (1%)
    Заголовок : Dub | DD 5.1 @ 384 kbps - iTunes
    Язык : Russian
    ServiceKind/String : Complete Main
    Default : Да
    Forced : Нет
    Аудио #2
    Идентификатор : 3
    Формат : DTS
    Формат/Информация : Digital Theater Systems
    Профиль формата : MA/Core
    Идентификатор кодека : A_DTS
    Продолжительность : 1 ч. 42 м.
    Вид битрейта : Переменный/Постоянный
    Битрейт : 4415 Кбит/сек/1509 Кбит/сек
    Каналы : 8 каналов/6 каналов
    Расположение каналов : Front: L C R, Side: L R, Back: L R, LFE/Front: L C R, Side: L R, LFE
    Частота : 48, 0 КГц
    Частота кадров : 93, 750 кадра/сек (512 SPF)
    Битовая глубина : 24 бит
    Метод сжатия : Без потерь/Lossy
    Размер потока : 3, 16 Гбайт (17%)
    Заголовок : Original | DTS-HD MA 7.1 @ 4415 kbps
    Язык : English
    Default : Нет
    Forced : Нет
    Текст #1
    Идентификатор : 4
    Формат : UTF-8
    Идентификатор кодека : S_TEXT/UTF8
    Идентификатор кодека/Информация : UTF-8 Plain Text
    Продолжительность : 1 ч. 40 м.
    Битрейт : 130 бит/сек
    ElementCount : 1420
    Размер потока : 96, 6 Кбайт (0%)
    Заголовок : iTunes
    Язык : Russian
    Default : Нет
    Forced : Нет
    Текст #2
    Идентификатор : 5
    Формат : UTF-8
    Идентификатор кодека : S_TEXT/UTF8
    Идентификатор кодека/Информация : UTF-8 Plain Text
    Продолжительность : 1 ч. 40 м.
    Битрейт : 79 бит/сек
    ElementCount : 1425
    Размер потока : 59, 0 Кбайт (0%)
    Заголовок : Full
    Язык : English
    Default : Нет
    Forced : Нет
    Текст #3
    Идентификатор : 6
    Формат : UTF-8
    Идентификатор кодека : S_TEXT/UTF8
    Идентификатор кодека/Информация : UTF-8 Plain Text
    Продолжительность : 1 ч. 40 м.
    Битрейт : 87 бит/сек
    ElementCount : 2107
    Размер потока : 64, 4 Кбайт (0%)
    Заголовок : SDH
    Язык : English
    Default : Нет
    Forced : Нет
    Текст #4
    Идентификатор : 7
    Формат : UTF-8
    Идентификатор кодека : S_TEXT/UTF8
    Идентификатор кодека/Информация : UTF-8 Plain Text
    Продолжительность : 1 ч. 40 м.
    Битрейт : 115 бит/сек
    ElementCount : 2107
    Размер потока : 85, 4 Кбайт (0%)
    Заголовок : SDH-Colored
    Язык : English
    Default : Нет
    Forced : Нет
    Текст #5
    Идентификатор : 8
    Формат : UTF-8
    Идентификатор кодека : S_TEXT/UTF8
    Идентификатор кодека/Информация : UTF-8 Plain Text
    Продолжительность : 1 ч. 41 м.
    Битрейт : 120 бит/сек
    ElementCount : 1967
    Размер потока : 89, 8 Кбайт (0%)
    Заголовок : Commentary
    Язык : English
    Default : Нет
    Forced : Нет
    Текст #6
    Идентификатор : 9
    Формат : UTF-8
    Идентификатор кодека : S_TEXT/UTF8
    Идентификатор кодека/Информация : UTF-8 Plain Text
    Продолжительность : 1 ч. 41 м.
    Битрейт : 124 бит/сек
    ElementCount : 2002
    Размер потока : 92, 8 Кбайт (0%)
    Заголовок : Commentary
    Язык : English
    Default : Нет
    Forced : Нет
    Меню
    00: 00: 00.000 : : Champ McQueen
    00: 04: 57.255 : : Storm Front
    00: 10: 54.988 : : Crash
    00: 13: 59.422 : : Wake-up Call
    00: 18: 15.344 : : Phone Call
    00: 21: 07.641 : : Modern Training
    00: 34: 08.880 : : Deal
    00: 37: 52.103 : : Beach
    00: 42: 44.812 : : Crazy Eight
    00: 49: 44.398 : : Cruz\'s Dream
    00: 53: 57.734 : : Facetime
    00: 58: 17.702 : : Olive Branch
    00: 59: 27.522 : : Smokey
    01: 02: 15.940 : : Hud\'s Win
    01: 06: 35.533 : : It\'s Over
    01: 08: 33.109 : : Old School Training
    01: 15: 48.126 : : Florida Arrival
    01: 20: 57.852 : : Pit Stop
    01: 29: 42.418 : : Victory Lane
    01: 32: 17.031 : : Epilogue
    01: 34: 00.092 : : End Credits

    File: D: ФильмыTachki.3.2017.BDRemux.1080p.NNMClub.mkv
    Duration: 01: 42: 25 (6145.01)
    Track #1: video
    lang: Unknown (1)
    codc: V_MPEG4/ISO/AVC - H264/AVC (22)
    reso: 1920x1080 - 16: 9
    fram: 23.976 fps
    rate: 21637 kbps (21637.5)
    dura: 01: 42: 25 (6144.97)
    size: 15.48 GB (16620192561)
    Track #2: audio (Dub | DD 5.1 @ 384 kbps - iTunes)
    lang: rus - Russian (15)
    codc: A_AC3 - AC3 (2)
    chan: 6 - 5.1 Surround
    samp: 48000 Hz
    rate: 384 kbps (384.04)
    dura: 01: 42: 25 (6144.54)
    size: 281.31 MB (294970402)
    Track #3: audio (Original | DTS-HD MA 7.1 @ 4415 kbps)
    lang: Unknown (1)
    codc: A_DTS - DTS (13)
    chan: 8 - 7.1 Surround
    samp: 48000 Hz
    rate: 4416 kbps (4415.91)
    dura: 01: 42: 25 (6144.95)
    size: 3.16 GB (3391943170)
    Track #4: subtitles (iTunes)
    lang: rus - Russian (15)
    type: S_TEXT/UTF8 - SRT (3)
    size: 96.65 KB (98969)
    Track #5: subtitles (Full)
    lang: Unknown (1)
    type: S_TEXT/UTF8 - SRT (3)
    size: 59.02 KB (60436)
    Track #6: subtitles (SDH)
    lang: Unknown (1)
    type: S_TEXT/UTF8 - SRT (3)
    size: 64.41 KB (65955)
    Track #7: subtitles (SDH-Colored)
    lang: Unknown (1)
    type: S_TEXT/UTF8 - SRT (3)
    size: 85.40 KB (87451)
    Track #8: subtitles (Commentary)
    lang: Unknown (1)
    type: S_TEXT/UTF8 - SRT (3)
    size: 89.84 KB (91998)
    Track #9: subtitles (Commentary)
    lang: Unknown (1)
    type: S_TEXT/UTF8 - SRT (3)
    size: 92.84 KB (95064)
    Sizes: (check sanity)
    disk: 18.92 GB (20310839972)
    atts: 398.62 KB (408183)
    trac: 6.91 GB (7422704118) based on track size
    bitr: 18.91 GB (20307139199) based on bitrate
    tdif: 12.00 GB (12887727671) 63.45%
    bdif: 3.14 MB (3292589) 0.01%

    Скриншоты для ознакомления


    Все одноименные релизы в Клубе
    Время раздачи: 24/7 (до появления первых 3-5 скачавших)


    Онлайн видео Тачки 3



    Тачки 3/Cars 3 (2017) BDRemux [H.264/1080p]
    загрузка...
    Рейтинг →
     (голосов: 1, оценка 3/5, голосовать можно 1 раз )

    Другие торренты по теме:

  • Тачки / Cars (2006) BDRip [720p]
  • Тачки / Cars (2006) BDRip [1080p] ATV2 скачать через торрент бесплатно
  • Тачки / Cars (2006) WEB-DL [H.264 / 1080p-LQ] [open matte]
  • Тачки / Cars (2006) BDRip [H.265 / 1080p-LQ]
  • Cars 2 / Тачки 2 [PS3] [EUR] [Ru] [3.55] [Cobra ODE / E3 ODE PRO ISO] (2011)
  • Тачки 2 / Cars 2 (2011) BDRip [1080p] ATV
  • Тачки 2 / Cars 2 (2011) BDRip [720p] ATV
  • Cars 2 / Тачки 2 (2011) [Wii] [PAL] [Ru] скачать через торрент бесплатно


    • Комментарии (0):

      Информация

      Информация

        Посетители, находящиеся в группе Гости, не могут оставлять комментарии в данной новости.

        ↓ Меню




        ↓ Опрос

        Вы добавили сайт в закладки?
        Да
        Нет


        Top 10 за месяц (Мультфильмы)