.
Авторизация | Регистрация
Хочешь лучшие торренты? Добавь свой email!
Добавить

Торрент скачать бесплатно

» » Микки и веселые гонки / Mickey and the Roadster Racers (2017) SATRip (Сезон 1, серий 11 из 21) [Обновляемая] торрент скачать бесплатно



    Микки и веселые гонки / Mickey and the Roadster Racers (2017) SATRip (Сезон 1, серий 11 из 21) [Обновляемая] торрент скачать бесплатно

    Опубликовал: Админ | Дата: 7-11-2017, 05:00 | Просмотров: 0

    Производство: США
    Жанр: Детский, Развивающий, Компьютерная анимация
    Режиссер: Брони Ликоманов, Фил Вайнштейн

    Описание

    Яркий увлекательный мультфильм, который подойдет даже для самых маленьких наших зрителей. Здесь Микки Маус, всем полюбившийся диснеевский герой, вместе со своими друзьями будет устраивать супер-гонки на своем новеньком красном автомобиле хот-род. Она оснащена по всем правилам новейших технологий и может развивать колоссальную скорость. Как всегда, Микки Маус и его друзья подарят маленьким зрителям отличное настроение и море позитивных эмоций. Ведь неугомонный мышонок и его попутчики не привыкли скучать. Им любые дела по плечу, особенно если рассекать по дорогам в новеньком красивеньком автомобиле. Приглашаем и вас окунуться в незабываемые, фееричные приключения вместе с нашими героями.

    Возраст: 0+ (для любой зрительской аудитории)
    Рейтинг MPAA: G (нет возрастных ограничений)
    Дата мировой премьеры: 15 января 2017
    Дата российской премьеры: 23 сентября 2017
    Качество видео: SATRip
    Перевод: Полный дубляж, вкл. песни
    Субтитры: Отсутствуют
    Видео: Xvid, 704х400, ~1200 kb/s
    Аудио: MP3, 2 ch, 192 kb/s

    General
    Complete name : 06a Призрачный гонщик.avi
    Format : AVI
    Format/Info : Audio Video Interleave
    File size : 110 MiB
    Duration : 11 min 1 s
    Overall bit rate : 1 398 kb/s
    Writing library : VirtualDub build 40464/release
    Video
    ID : 0
    Format : MPEG-4 Visual
    Format profile : Advanced Simple@L5
    Format settings : BVOP2
    Format settings, BVOP : 2
    Format settings, QPel : No
    Format settings, GMC : No warppoints
    Format settings, Matrix : Default (H.263)
    Muxing mode : Packed bitstream
    Codec ID : XVID
    Codec ID/Hint : XviD
    Duration : 11 min 1 s
    Bit rate : 1 197 kb/s
    Width : 704 pixels
    Height : 400 pixels
    Display aspect ratio : 16: 9
    Frame rate : 25.000 FPS
    Color space : YUV
    Chroma subsampling : 4: 2: 0
    Bit depth : 8 bits
    Scan type : Progressive
    Compression mode : Lossy
    Bits/(Pixel*Frame) : 0.170
    Stream size : 94.3 MiB (86%)
    Writing library : XviD 73
    Audio
    ID : 1
    Format : MPEG Audio
    Format version : Version 1
    Format profile : Layer 3
    Format settings : Joint stereo
    Mode : Joint stereo
    Codec ID : 55
    Codec ID/Hint : MP3
    Duration : 11 min 1 s
    Bit rate mode : Constant
    Bit rate : 192 kb/s
    Channel(s) : 2 channels
    Sampling rate : 48.0 kHz
    Compression mode : Lossy
    Stream size : 15.1 MiB (14%)
    Alignment : Split accross interleaves
    Interleave, duration : 40 ms (1.00 video frame)
    Interleave, preload duratio : 500 ms
    01a Абракагуфра.avi
    01b С днём рождения доброделы.avi
    02a Всё выше и выше!.avi
    02b На рыбалку!.avi
    03a Гонка за кубок Ригатони.avi
    03b Прогулка по Риму.avi
    04a Идеальный день.avi
    04b Родстеры против родстеров.avi
    05a Нереальные гонки.avi
    05b Незабываемый круиз.avi
    06a Призрачный гонщик.avi
    06b Хеллоуин у Пита.avi
    07a Агент 00-Гуф.avi
    07b Горе-наседки.avi
    08a Вики-вики значит быстро.avi
    08b Алоха доброделы!.avi
    09a Ограбление по-королевски.avi
    09b Чаепитие с сюрпризом.avi
    10a Погоня за шиной.avi
    10b Кошачьи няньки.avi
    11a Гуф-заправка.avi
    11b Две гориллы.avi

    Скриншоты для ознакомления



    Все одноименные релизы в Клубе
    Время раздачи: 24/7 (круглосуточно) (до появления первых 3-5 скачавших)


    Онлайн видео Микки и веселые гонки


    Прямая ссылка скачивания через uTorrent


    Микки и веселые гонки/Mickey and the Roadster Racers (2017) SATRip (Сезон 1, серий 11 из 21) [Обновляемая]
    загрузка...
    Рейтинг →
     (голосов: 1, оценка 5/5, голосовать можно 1 раз )

    Другие торренты по теме:

  • Рождественская история Микки / Mickeys Christmas Carol (1983) BDRip [720p]
  • Рождественская история Микки / Mickeys Christmas Carol (1983) HDRip
  • Три мушкетера. Микки, Дональд, Гуфи / Mickey, Donald, Goofy: The Three Musketeers (2004) BDRip [720p] скачать через торрент бесплатно
  • Микки: Однажды под Рождество / Mickeys Once Upon a Christmas (1999) BDRip [720p] скачать через торрент бесплатно
  • Микки Маус: Игривый Плуто / Mickey Mouse: Playful Pluto (1934) DVDRip [H.264 / hand made colored] [EN]
  • Голубоглазый Микки / Mickey Blue Eyes (1999) HDTV [H.264 / 1080i] скачать через торрент бесплатно
  • Микки в роли папы / Mickey Plays Papa (1934) DVDRip [H.264 / hand made colored] скачать через торрент бесплатно
  • Где же Микки 1.2 [Ru] скачать через торрент бесплатно


    • Комментарии (0):

      Информация

      Информация

        Посетители, находящиеся в группе Гости, не могут оставлять комментарии в данной новости.

        ↓ Меню




        ↓ Опрос

        Вы добавили сайт в закладки?
        Да
        Нет


        Top 10 за месяц (Мультфильмы)