.
Авторизация | Регистрация
Хочешь лучшие торренты? Добавь свой email!
Добавить

Торрент скачать бесплатно

» » Фрик Таун / Freaktown (2016) HDTVRip [H.264 / 720p-LQ] (Сезон 1, 5 серий из 26) [UKR] торрент скачать бесплатно




    Фрик Таун / Freaktown (2016) HDTVRip [H.264 / 720p-LQ] (Сезон 1, 5 серий из 26) [UKR] торрент скачать бесплатно

    Опубликовал: Админ | Дата: 6-11-2017, 05:00 | Просмотров: 0

    Производство: Канада, США, Teletoon
    Жанр: Фентези, Комедия
    Режиссер: Крис Лабонте

    Описание

    Лучшие друзья Бен Бонс (скелет с душой) и Ленни (непринужденный мутант богомола) живут в Фриктауне - безумном месте, где приветствуются гули, мутанты, неудачники и причуды любого рода. Будь то серфинг на цунами или летучая мышь, летящая по городу, Бен и его приятели найдут странные приключения в каждом болоте, канализации и шламе!

    Возраст: 12+ (зрителям, достигшим 12 лет)
    Релиз от: sergiyko
    Продолжительность: 00: 11: 00 серия
    Качество видео: HDTVRip
    Перевод: Отсутствует
    Язык озвучки: украинский (дубляж ТК Niki Kids)
    Субтитры: отсутствуют
    Видео: AVC/H.264, 1280х720, ~2500 Kbps
    Аудио: MP2, 2 ch, 192 Kbps

    General
    Unique ID : 182009447116923369775751760348049964702 (0x88EDBE93620691E5BF3D0B3FB519FE9E)
    Complete name : E: MULTFILMSFreaktown S01 720p HDTVRipFreaktown.S01E06.2.Dare Ya.720p.HDTVRip.mkv
    Format : Matroska
    Format version : Version 2
    File size : 199 MiB
    Duration : 11 min 15 s
    Overall bit rate : 2 474 kb/s
    Encoded date : UTC 2017-11-04 09: 22: 57
    Writing application : mkvmerge v7.8.0 (\'River Man\') 32bit built on Apr 3 2015 12: 11: 22
    Writing library : libebml v1.3.1 + libmatroska v1.4.2
    Video
    ID : 1
    Format : AVC
    Format/Info : Advanced Video Codec
    Format profile : High@L4.1
    Format settings, CABAC : Yes
    Format settings, RefFrames : 10 frames
    Codec ID : V_MPEG4/ISO/AVC
    Duration : 11 min 15 s
    Bit rate : 2 233 kb/s
    Width : 1 280 pixels
    Height : 720 pixels
    Display aspect ratio : 16: 9
    Frame rate mode : Constant
    Frame rate : 25.000 FPS
    Color space : YUV
    Chroma subsampling : 4: 2: 0
    Bit depth : 8 bits
    Scan type : Progressive
    Bits/(Pixel*Frame) : 0.097
    Stream size : 180 MiB (90%)
    Writing library : x264 core 152 r2851 ba24899
    Encoding settings : cabac=1/ref=10/deblock=1: -1: -1/analyse=0x3: 0x113/me=umh/subme=9/psy=1/psy_rd=0.40: 0.00/mixed_ref=1/me_range=24/chroma_me=1/trellis=2/8x8dct=1/cqm=0/deadzone=21, 11/fast_pskip=1/chroma_qp_offset=-2/threads=8/lookahead_threads=1/sliced_threads=0/nr=0/decimate=1/interlaced=0/bluray_compat=0/constrained_intra=0/bframes=8/b_pyramid=2/b_adapt=2/b_bias=0/direct=3/weightb=1/open_gop=0/weightp=2/keyint=250/keyint_min=25/scenecut=40/intra_refresh=0/rc_lookahead=60/rc=crf/mbtree=1/crf=17.0/qcomp=0.70/qpmin=8/qpmax=56/qpstep=4/vbv_maxrate=14000/vbv_bufsize=14000/crf_max=0.0/nal_hrd=none/filler=0/ip_ratio=1.40/aq=1: 0.60
    Default : Yes
    Forced : No
    Audio
    ID : 2
    Format : MPEG Audio
    Format version : Version 1
    Format profile : Layer 2
    Codec ID : A_MPEG/L2
    Codec ID/Hint : MP2
    Duration : 11 min 15 s
    Bit rate mode : Constant
    Bit rate : 192 kb/s
    Channel(s) : 2 channels
    Sampling rate : 48.0 kHz
    Compression mode : Lossy
    Stream size : 15.5 MiB (8%)
    Default : Yes
    Forced : No


    Онлайн видео Фрик Таун



    Фрик Таун/Freaktown (2016) HDTVRip [H.264/720p-LQ] (Сезон 1, 5 серий из 26) [UKR]
    загрузка...
    Рейтинг →
     (голосов: 1, оценка 3/5, голосовать можно 1 раз )

    Другие торренты по теме:

  • Американская история ужасов: Фрик-шоу / American Horror Story: Freak Show (2014) HDTVRip (Сезон 4 Серии 01-02 из 13) Новамедиа (обновляемая) скачать через торрент бесплатно
  • Американская история ужасов: Фрик-шоу (American Horror Story: Freak Show) / (Сезон 4, серии 1-7 из 13) LostFilm (2014) [MP4|1280x720] <WEB-DLRip H.264>
  • Фрик Вермюлен | Бизнес под прицелом. Голая правда о том, что на самом деле происходит в мире бизнеса (2012) [EPUB, MOBI]


    • Комментарии (0):

      Информация

      Информация

        Посетители, находящиеся в группе Гости, не могут оставлять комментарии в данной новости.

        ↓ Меню




        ↓ Опрос

        Вы добавили сайт в закладки?
        Да
        Нет


        Top 10 за месяц (Мультфильмы)