.
Авторизация | Регистрация
Хочешь лучшие торренты? Добавь свой email!
Добавить

Торрент скачать бесплатно

» » Тачки 3 / Cars 3 (2017) BDRip [H.264] торрент скачать бесплатно




    Тачки 3 / Cars 3 (2017) BDRip [H.264] торрент скачать бесплатно

    Опубликовал: Админ | Дата: 6-11-2017, 05:00 | Просмотров: 0

    Производство: США, Walt Disney Pictures, Pixar Animation Studios
    Жанр: Кукольный
    Режиссер: Брайан Фи
    Персонажи: Оуэн Уилсон, Пол Ньюман, Бонни Хант, Ларри Кейбл Гай, Чич Марин, Тони Шэлоуб, Гуидо Куарони, Дженифер Льюис, Пол Дули, Майкл Уоллис

    Описание

    Встречайте самого знаменитого гонщика всех времен, легенду гоночного трека Молнию Маккуина!
    Герой все еще продолжает показывать лучшие результаты на всех турнирах, однако победы даются ему не так легко, а конкуренция становится все жестче. Молнию Маккуина ждут захватывающие приключения, где он встретит новых друзей, а также поймет, что не только скорость и мощность мотора делают гонщика чемпионом.

    Возраст: 6+ (зрителям, достигшим 6 лет)
    Рейтинг MPAA: G (нет возрастных ограничений)
    Дата мировой премьеры: 10 июня 2017
    Дата российской премьеры: 15 июня 2017, WDSSPR
    Продолжительность: 01: 42: 25
    Качество видео: BDRip
    Перевод: Дублированный (iTunes)
    Субтитры: Русские
    Видео: AVC/H.264, 908х380, ~1593 Kbps
    Аудио: AC3, 6 ch, 384 Kbps

    Tachki.3.2017.RUS.BDRip.x264.mkv
    Формат : Matroska
    Версия формата : Version 4/Version 2
    Размер файла : 1, 42 Гбайт
    Продолжительность : 1 ч. 42 м.
    Общий поток : 1979 Кбит/сек
    Название фильма : Cars 3 (2017)
    Дата кодирования : UTC 2017-11-05 10: 02: 30
    Программа кодирования : mkvmerge v5.9.0 (\'On The Loose\') built on Dec 15 2012 16: 39: 58
    Библиотека кодирования : libebml v1.3.0 + libmatroska v1.4.0
    Видео
    Идентификатор : 1
    Формат : AVC
    Формат/Информация : Advanced Video Codec
    Профиль формата : High@L4.1
    Настройки формата : CABAC/12 Ref Frames
    Параметр CABAC формата : Да
    Параметр RefFrames формата : 12 кадров
    Идентификатор кодека : V_MPEG4/ISO/AVC
    Продолжительность : 1 ч. 42 м.
    Битрейт : 1593 Кбит/сек
    Ширина : 908 пикселей
    Высота : 380 пикселей
    Соотношение сторон : 2, 40: 1
    Режим частоты кадров : Постоянный
    Частота кадров : 23, 976 (24000/1001) кадра/сек
    Цветовое пространство : YUV
    Субдискретизация насыщенности : 4: 2: 0
    Битовая глубина : 8 бит
    Тип развёртки : Прогрессивная
    Бит/(Пиксели*Кадры) : 0.193
    Размер потока : 1, 11 Гбайт (79%)
    Заголовок : potroks
    Библиотека кодирования : x264 core 152 r2851M ba24899
    Настройки программы : cabac=1/ref=12/deblock=1: -1: -1/analyse=0x3: 0x133/me=umh/subme=11/psy=1/psy_rd=1.00: 0.10/mixed_ref=1/me_range=48/chroma_me=1/trellis=2/8x8dct=1/cqm=0/deadzone=21, 11/fast_pskip=0/chroma_qp_offset=-3/threads=9/lookahead_threads=2/sliced_threads=0/nr=0/decimate=0/interlaced=0/bluray_compat=0/constrained_intra=0/bframes=13/b_pyramid=2/b_adapt=2/b_bias=0/direct=3/weightb=1/open_gop=0/weightp=2/keyint=240/keyint_min=23/scenecut=40/intra_refresh=0/rc_lookahead=0/rc=2pass/mbtree=0/bitrate=1593/ratetol=1.0/qcomp=0.70/qpmin=0/qpmax=69/qpstep=4/cplxblur=20.0/qblur=0.5/vbv_maxrate=50000/vbv_bufsize=35714/nal_hrd=none/filler=0/ip_ratio=1.35/pb_ratio=1.25/aq=1: 0.80
    Язык : English
    Default : Да
    Forced : Нет
    Аудио
    Идентификатор : 2
    Формат : AC-3
    Формат/Информация : Audio Coding 3
    Идентификатор кодека : A_AC3
    Продолжительность : 1 ч. 42 м.
    Вид битрейта : Постоянный
    Битрейт : 384 Кбит/сек
    Каналы : 6 каналов
    Расположение каналов : Front: L C R, Side: L R, LFE
    Частота : 48, 0 КГц
    Частота кадров : 31, 250 кадров/сек (1536 SPF)
    Битовая глубина : 16 бит
    Метод сжатия : С потерями
    Размер потока : 281 Мбайт (19%)
    Заголовок : Dub | DD 5.1 @ 384 kbps - iTunes
    Язык : Russian
    ServiceKind/String : Complete Main
    Default : Да
    Forced : Нет
    Текст
    Идентификатор : 3
    Формат : UTF-8
    Идентификатор кодека : S_TEXT/UTF8
    Идентификатор кодека/Информация : UTF-8 Plain Text
    Заголовок : iTunes
    Язык : Russian
    Default : Нет
    Forced : Нет
    Меню
    00: 00: 00.000 : : Champ McQueen
    00: 04: 57.255 : : Storm Front
    00: 10: 54.988 : : Crash
    00: 13: 59.422 : : Wake-up Call
    00: 18: 15.344 : : Phone Call
    00: 21: 07.641 : : Modern Training
    00: 34: 08.880 : : Deal
    00: 37: 52.103 : : Beach
    00: 42: 44.812 : : Crazy Eight
    00: 49: 44.398 : : Cruz\'s Dream
    00: 53: 57.734 : : Facetime
    00: 58: 17.702 : : Olive Branch
    00: 59: 27.522 : : Smokey
    01: 02: 15.940 : : Hud\'s Win
    01: 06: 35.533 : : It\'s Over
    01: 08: 33.109 : : Old School Training
    01: 15: 48.126 : : Florida Arrival
    01: 20: 57.852 : : Pit Stop
    01: 29: 42.418 : : Victory Lane
    01: 32: 17.031 : : Epilogue
    01: 34: 00.092 : : End Credits

    Скриншоты для ознакомления




    Все одноименные релизы в Клубе
    Время раздачи: 24/7 (до появления первых 3-5 скачавших)


    Онлайн видео Тачки 3



    Тачки 3/Cars 3 (2017) BDRip [H.264]
    загрузка...
    Рейтинг →
     (голосов: 1, оценка 5/5, голосовать можно 1 раз )

    Другие торренты по теме:

  • Тачки / Cars (2006) BDRip [720p]
  • Тачки / Cars (2006) BDRip [1080p] ATV2 скачать через торрент бесплатно
  • Тачки / Cars (2006) WEB-DL [H.264 / 1080p-LQ] [open matte]
  • Тачки / Cars (2006) BDRip [H.265 / 1080p-LQ]
  • Cars 2 / Тачки 2 [PS3] [EUR] [Ru] [3.55] [Cobra ODE / E3 ODE PRO ISO] (2011)
  • Тачки 2 / Cars 2 (2011) BDRip [1080p] ATV
  • Тачки 2 / Cars 2 (2011) BDRip [720p] ATV
  • Cars 2 / Тачки 2 (2011) [Wii] [PAL] [Ru] скачать через торрент бесплатно


    • Комментарии (0):

      Информация

      Информация

        Посетители, находящиеся в группе Гости, не могут оставлять комментарии в данной новости.

        ↓ Меню




        ↓ Опрос

        Вы добавили сайт в закладки?
        Да
        Нет


        Top 10 за месяц (Мультфильмы)