.
Авторизация | Регистрация
Хочешь лучшие торренты? Добавь свой email!
Добавить

Торрент скачать бесплатно

» » Знакомьтесь, Боб! (2017) WEB-DLRip [H.264 / 720p-LQ] (сезон 1-3, серии 1-36) [Обновляемая] торрент скачать бесплатно




    Знакомьтесь, Боб! (2017) WEB-DLRip [H.264 / 720p-LQ] (сезон 1-3, серии 1-36) [Обновляемая] торрент скачать бесплатно

    Опубликовал: Админ | Дата: 6-11-2017, 05:00 | Просмотров: 0

    Год выпуска: 2017
    Жанр: Анимационный сериал
    Производство: Россия

    Описание

    Вредные советы от парня по имени Боб в развлекательной форме объяснят ваши детям, как не наделать глупостей. В каждом выпуске мультфильма Боб расскажет и покажет, почему не стоит делать те или иные вещи, даже если очень хочется. Например, прыгать из самолета без парашюта. Или есть незнакомые грибы. Или выбегать на улицу без одежды в лютый мороз. Серии мультфильма короткие – длятся всего по две минуты. Но за них создатели сериала вместе с Бобом точно убедят вас в абсурдности смелых экспериментов. Во втором сезон любимого сериалае сериала Боб будет давать уже полезные советы – как выжить в пустыне, что делать, если надвигается торнадо, как быть, если в путешествии вы подцепили заразу и т.д. С советами Боба вы всегда будете во всеоружии.
    Возраст: 6+ (зрителям, достигшим 6 лет)
    Рейтинг MPAA: PG (рекомендуется присутствие родителей)
    Релиз от: Natasha77
    Продолжительность: 00: 02: 00 серия
    Качество видео: WEB-DLRip
    Перевод: Не требуется (Русский)
    Субтитры: Отсутствуют
    Видео: AVC/H.264, 1280x720, ~2500 kbps
    Аудио: Русский: AAC, 2 ch, 256 kbps
    Код: выделить все
    General
    Unique ID : 243660042618087763717611333377088767560 (0xB74F379C9306AA5D8A0778924DAB4648)
    Complete name : C:Знакомьтесь, Бобs01e06_Боба укусила ядовитая змея.mkv
    Format : Matroska
    Format version : Version 4/Version 2
    File size : 43.5 MiB
    Duration : 2 min 9 s
    Overall bit rate : 2 830 kb/s
    Encoded date : UTC 2017-11-05 13:37:03
    Writing application : mkvmerge v16.0.0 (\'Protest\') 32-bit
    Writing library : libebml v1.3.5 + libmatroska v1.4.8
    Video
    ID : 1
    Format : AVC
    Format/Info : Advanced Video Codec
    Format profile : High@L4
    Format settings : CABAC/4 Ref Frames
    Format settings, CABAC : Yes
    Format settings, RefFrames : 4 frames
    Codec ID : V_MPEG4/ISO/AVC
    Duration : 2 min 8 s
    Bit rate : 2 569 kb/s
    Width : 1 280 pixels
    Height : 720 pixels
    Display aspect ratio : 16:9
    Frame rate mode : Constant
    Frame rate : 25.000 FPS
    Color space : YUV
    Chroma subsampling : 4:2:0
    Bit depth : 8 bits
    Scan type : Progressive
    Bits/(Pixel*Frame) : 0.112
    Stream size : 39.6 MiB (91%)
    Writing library : x264 core 142
    Encoding settings : cabac=1/ref=3/deblock=1:0:0/analyse=0x3:0x113/me=hex/subme=7/psy=1/psy_rd=1.00:0.00/mixed_ref=1/me_range=16/chroma_me=1/trellis=1/8x8dct=1/cqm=0/deadzone=21, 11/fast_pskip=1/chroma_qp_offset=-2/threads=48/lookahead_threads=5/sliced_threads=0/nr=0/decimate=1/interlaced=0/bluray_compat=0/constrained_intra=0/bframes=6/b_pyramid=2/b_adapt=1/b_bias=0/direct=1/weightb=1/open_gop=0/weightp=2/keyint=50/keyint_min=26/scenecut=0/intra_refresh=0/rc_lookahead=40/rc=2pass/mbtree=1/bitrate=2569/ratetol=1.0/qcomp=0.60/qpmin=0/qpmax=69/qpstep=4/cplxblur=20.0/qblur=0.5/vbv_maxrate=3854/vbv_bufsize=10279/nal_hrd=none/filler=0/ip_ratio=1.40/aq=1:1.00
    Default : Yes
    Forced : No
    Audio
    ID : 2
    Format : AAC
    Format/Info : Advanced Audio Codec
    Format profile : LC
    Codec ID : A_AAC-2
    Duration : 2 min 9 s
    Bit rate : 256 kb/s
    Channel(s) : 2 channels
    Channel positions : Front: L R
    Sampling rate : 48.0 kHz
    Frame rate : 46.875 FPS (1024 SPF)
    Compression mode : Lossy
    Stream size : 3.94 MiB (9%)
    Language : Russian
    Default : Yes
    Forced : No
    s01e01_Боб прыгнул с 10 000 метров без парашюта
    s01e02_Боб съел 10 килограмм шоколада
    s01e03_Боб похоронен заживо
    s01e04_Боб взорвал 50 кг фейерверков
    s01e05_Боб без одежды при -40°
    s01e06_Боба укусила ядовитая змея
    s01e07_Боб погрузился на 200 метров
    s01e08_Боб на ядерном полигоне
    s01e09_Боб не спал 10 дней
    s01e10_Боб на необитаемом острове
    s01e11_Боб быстрее скорости звука
    s01e12_Боб наелся ядовитых грибов
    s01e13_Боб в горящем небоскребе
    s01e14_Боб сражается с дикими зверями
    s01e15_Боб тонет в нефти
    s01e16_Боб попал в средневековье
    s01e17_Боба посадили в тюрьму
    s01e18_Боба напугали до смерти
    s02e19_Боб на боях без правил
    s02e20_Боб заражен паразитами
    s02e21_Боб выживает в пустыне
    s02e22_Боб на корриде
    s02e23_Боб выживает в торнадо
    s02e24_Боб тестирует крутые пушки
    s02e25_Боб - секретный агент
    s02e26_Боб на гладиаторских боях
    s02e27_Боб пробует острое
    s02e28_Боб сошел с ума
    s02e29_Боб против нечисти
    s02e30_Боб одержим дьяволом
    s02e31_Откуда взялся Боб со шрамом
    s03e32_Боб покоряет Эверест
    s03e33_Боб в кратере вулкана
    s03e34_Боб выпил 7 литров кофе
    s03e35_Боб заражен смертельным вирусом
    s03e36_Боб против зомби

    Скриншоты для ознакомления


    05.11.2017. Добавлена 36-я серия - Боб против зомби
    Знакомьтесь, Боб на NoNaMe Club


    Онлайн видео Знакомьтесь, Боб! (2017) WEB-DLRip [H.264



    Знакомьтесь, Боб! (2017) WEB-DLRip [H.264/720p-LQ] (сезон 1-3, серии 1-36) [Обновляемая]
    загрузка...
    Рейтинг →
     (голосов: 1, оценка 5/5, голосовать можно 1 раз )

    Другие торренты по теме:

  • Игорь Поль | Знакомьтесь — Юджин Уэллс, капитан [Главы 1-40 из 51. Обновляемая] (2014) [MP3] скачать через торрент бесплатно
  • Знакомьтесь, Ваша вдова / Mariees mais pas trop (2003) DVDRip
  • Знакомьтесь: Дэйв / Meet Dave (2008) BDRemux [H.264 / 1080p]
  • Картинки - Знакомьтесь, Джетт. Мастер камуфляжа. 3141x1766 - 5184x2916 - 30 шт [JPG]
  • Знакомьтесь, семейка Блэков / Meet the Blacks (2016) HDRip
  • Знакомьтесь, Джо Блэк / Meet Joe Black (1998) BDRip [H.264 / 1080p-LQ]
  • Игорь Шенгальц | Знакомьтесь, Гагарин! (2017) [FB2]


    • Комментарии (0):

      Информация

      Информация

        Посетители, находящиеся в группе Гости, не могут оставлять комментарии в данной новости.

        ↓ Меню




        ↓ Опрос

        Вы добавили сайт в закладки?
        Да
        Нет


        Top 10 за месяц (Мультфильмы)