.
Авторизация | Регистрация
Хочешь лучшие торренты? Добавь свой email!
Добавить

Торрент скачать бесплатно

» » Бэтмен: Под колпаком / Batman: Under The Red Hood (2010) BDRemux [VC-1 / 1080p] торрент скачать бесплатно




    Бэтмен: Под колпаком / Batman: Under The Red Hood (2010) BDRemux [VC-1 / 1080p] торрент скачать бесплатно

    Опубликовал: Админ | Дата: 6-11-2017, 05:00 | Просмотров: 0

    Производство: США
    Жанр: Рисованная анимация, Фентези, Приключения
    Режиссер: Брэндон Виетти/Brandon Vietti
    Персонажи: Бэтмен, Красный колпак, Найтвинг, Джокер, Ра\'с аль Гул, Чёрная Маска

    Описание

    В Готэме появляется новый смертоносный мститель, называющий себя Красным Колпаком. Он начинает кровавую территориальную войну с криминальным королем города Черной Маской, и Темный Рыцарь быстро понимает, что новичок знает и умеет слишком много для простого преступника...

    Возраст: 12+ (зрителям, достигшим 12 лет)
    Рейтинг MPAA: PG-13 (детям до 13 лет просмотр нежелателен)
    Дата мировой премьеры: 27 июля 2010
    Продолжительность: 01: 15: 49
    Качество видео: BDRemux
    Перевод: Многоголосый закадровый профессиональный (THT), Любительский многоголосый закадровый (SkyeFilmTV), Любительский многоголосый закадровый (Немое Кино)
    Субтитры: русские (SkyeFilmTV), русские (Злюка), английские, французские, немецкие, испанские, португальские
    Видео: VC-1, 1920x1080 (16/9), 23.976 fps, ~16944 kbps
    Аудио 1: AC3, 2 ch, ~192 kbps - MVO THT
    Аудио 2: DTS-HD MA, 5.1 ch, ~1509kbps - MVO SkyeFilmTV
    Аудио 3: AC3, 2 ch, ~192 Kbps - MVO Немое Кино
    Аудио 4: DTS-HD MA, 5.1 ch, ~1509kbps - Оригинал (английский)
    Общее
    Уникальный идентификатор : 170314217828257726626874356564548807164 (0x80215340C4A40359BD0D5F1FA23E69FC)
    Полное имя : D: ImБэтменBatman Under The Red Hood.2010.BDRemux 1080p.mkv
    Формат : Matroska
    Версия формата : Version 4/Version 2
    Размер файла : 13, 5 Гбайт
    Продолжительность : 1 ч. 15 м.
    Режим общего битрейта : Переменный
    Общий поток : 25, 6 Мбит/сек
    Название фильма : Batman: Under The Red Hood.2010.BDRemux 1080p -Azureus-
    Дата кодирования : UTC 2015-06-14 11: 35: 32
    Программа кодирования : mkvmerge v7.9.0 (\'Birds\') 32bit
    Библиотека кодирования : libebml v1.3.1 + libmatroska v1.4.2
    DURATION : 01: 15: 50.528000000
    NUMBER_OF_FRAMES : 142204
    NUMBER_OF_BYTES : 109212672
    _STATISTICS_WRITING_APP : mkvmerge v7.9.0 (\'Birds\') 32bit
    _STATISTICS_WRITING_DATE_UTC : 2015-06-14 11: 35: 32
    _STATISTICS_TAGS : BPS DURATION NUMBER_OF_FRAMES NUMBER_OF_BYTES
    Видео
    Идентификатор : 1
    Формат : VC-1
    Профиль формата : AP@L3
    Идентификатор кодека : WVC1
    Идентификатор кодека/Подсказка : Microsoft
    Продолжительность : 1 ч. 15 м.
    Битрейт : 21, 3 Мбит/сек
    Ширина : 1920 пикселей
    Высота : 1080 пикселей
    Соотношение сторон : 16: 9
    Частота кадров : 23, 976 кадра/сек
    Субдискретизация насыщенности : 4: 2: 0
    Битовая глубина : 8 бит
    Тип развёртки : Прогрессивная
    Метод сжатия : С потерями
    Бит/(Пиксели*Кадры) : 0.428
    Размер потока : 11, 3 Гбайт (83%)
    Язык : English
    Default : Да
    Forced : Нет
    Аудио #1
    Идентификатор : 2
    Формат : AC-3
    Формат/Информация : Audio Coding 3
    Расширение режима : CM (complete main)
    Идентификатор кодека : A_AC3
    Продолжительность : 1 ч. 15 м.
    Вид битрейта : Постоянный
    Битрейт : 192 Кбит/сек
    Каналы : 2 канала
    Расположение каналов : Front: L R
    Частота : 48, 0 КГц
    Битовая глубина : 16 бит
    Метод сжатия : С потерями
    Размер потока : 104 Мбайт (1%)
    Заголовок : MVO - THT
    Язык : Russian
    Default : Да
    Forced : Нет
    Аудио #2
    Идентификатор : 3
    Формат : DTS
    Формат/Информация : Digital Theater Systems
    Профиль формата : MA/Core
    Идентификатор кодека : A_DTS
    Продолжительность : 1 ч. 15 м.
    Вид битрейта : Переменный
    Битрейт : 1561 Кбит/сек/1510 Кбит/сек
    Каналы : 6 каналов
    Расположение каналов : Front: L C R, Side: L R, LFE
    Частота : 48, 0 КГц
    Битовая глубина : 24 бит
    Метод сжатия : Без потерь/Lossy
    Заголовок : MVO - SkyeFilmTV
    Язык : Russian
    Default : Нет
    Forced : Нет
    Аудио #3
    Идентификатор : 4
    Формат : AC-3
    Формат/Информация : Audio Coding 3
    Расширение режима : CM (complete main)
    Идентификатор кодека : A_AC3
    Продолжительность : 1 ч. 15 м.
    Вид битрейта : Постоянный
    Битрейт : 192 Кбит/сек
    Каналы : 2 канала
    Расположение каналов : Front: L R
    Частота : 48, 0 КГц
    Битовая глубина : 16 бит
    Метод сжатия : С потерями
    Задержка видео : 100 мс.
    Размер потока : 104 Мбайт (1%)
    Заголовок : MVO - Немое Кино
    Язык : Russian
    Default : Нет
    Forced : Нет
    Аудио #4
    Идентификатор : 5
    Формат : DTS
    Формат/Информация : Digital Theater Systems
    Профиль формата : MA/Core
    Идентификатор кодека : A_DTS
    Продолжительность : 1 ч. 15 м.
    Вид битрейта : Переменный
    Битрейт : 1843 Кбит/сек/1510 Кбит/сек
    Каналы : 6 каналов
    Расположение каналов : Front: L C R, Side: L R, LFE
    Частота : 48, 0 КГц
    Битовая глубина : 24 бит
    Метод сжатия : Без потерь/Lossy
    Заголовок : ENG
    Язык : English
    Default : Нет
    Forced : Нет
    Текст #1
    Идентификатор : 6
    Формат : UTF-8
    Идентификатор кодека : S_TEXT/UTF8
    Идентификатор кодека/Информация : UTF-8 Plain Text
    Заголовок : Rus Sub - SkyeFilmTV
    Язык : Russian
    Default : Нет
    Forced : Нет
    Текст #2
    Идентификатор : 7
    Формат : UTF-8
    Идентификатор кодека : S_TEXT/UTF8
    Идентификатор кодека/Информация : UTF-8 Plain Text
    Заголовок : Rus Sub - Злюка
    Язык : Russian
    Default : Нет
    Forced : Нет
    Текст #3
    Идентификатор : 8
    Формат : UTF-8
    Идентификатор кодека : S_TEXT/UTF8
    Идентификатор кодека/Информация : UTF-8 Plain Text
    Заголовок : Eng Sub
    Язык : English
    Default : Нет
    Forced : Нет
    Текст #4
    Идентификатор : 9
    Формат : UTF-8
    Идентификатор кодека : S_TEXT/UTF8
    Идентификатор кодека/Информация : UTF-8 Plain Text
    Заголовок : Fre Sub
    Язык : French
    Default : Нет
    Forced : Нет
    Текст #5
    Идентификатор : 10
    Формат : UTF-8
    Идентификатор кодека : S_TEXT/UTF8
    Идентификатор кодека/Информация : UTF-8 Plain Text
    Заголовок : Ger Sub
    Язык : German
    Default : Нет
    Forced : Нет
    Текст #6
    Идентификатор : 11
    Формат : UTF-8
    Идентификатор кодека : S_TEXT/UTF8
    Идентификатор кодека/Информация : UTF-8 Plain Text
    Заголовок : Spa Sub
    Язык : Spanish
    Default : Нет
    Forced : Нет
    Текст #7
    Идентификатор : 12
    Формат : UTF-8
    Идентификатор кодека : S_TEXT/UTF8
    Идентификатор кодека/Информация : UTF-8 Plain Text
    Заголовок : Por Sub
    Язык : Portuguese
    Default : Нет
    Forced : Нет
    Меню
    00: 00: 00.000 : en: Chapter 1
    00: 09: 57.597 : en: Chapter 2
    00: 20: 08.374 : en: Chapter 3
    00: 32: 59.477 : en: Chapter 4
    00: 41: 12.011 : en: Chapter 5
    00: 49: 04.400 : en: Chapter 6
    01: 00: 22.244 : en: Chapter 7
    01: 10: 28.224 : en: Chapter 8


    Онлайн видео Бэтмен: Под колпаком



    Бэтмен: Под колпаком/Batman: Under The Red Hood (2010) BDRemux [VC-1/1080p]
    загрузка...
    Рейтинг →
     (голосов: 1, оценка 5/5, голосовать можно 1 раз )

    Другие торренты по теме:

  • Christopher Drake - Бэтмен: Под колпаком / Batman: Under the Red Hood (2010) [AAC|WEB-DL|256 кб / с]<Score>


    • Комментарии (0):

      Информация

      Информация

        Посетители, находящиеся в группе Гости, не могут оставлять комментарии в данной новости.

        ↓ Меню




        ↓ Опрос

        Вы добавили сайт в закладки?
        Да
        Нет


        Top 10 за месяц (Мультфильмы)