.
Авторизация | Регистрация
Хочешь лучшие торренты? Добавь свой email!
Добавить

Торрент скачать бесплатно

» » А к нам цирк приехал (1978) DVBRip [H.264] торрент скачать бесплатно




    А к нам цирк приехал (1978) DVBRip [H.264] торрент скачать бесплатно

    Опубликовал: Админ | Дата: 5-11-2017, 05:00 | Просмотров: 0

    Производство: СССР
    Жанр: Короткометражный, детский, комедия, семейный
    Режиссер: Анатолий Резников

    Актеры
    Ира Гоменюк, Ольга Рябцева, Нина Зайцева, Павел Степанов, Глеб Стриженов, Борис Зайденберг, Мод Оже

    Описание

    Фильм о сложных взаимоотношениях двух подростков-одноклассников: Лукашова, стремящегося быть лидером класса, и новенького Александрова, приехавшего в город с цирком шапито…

    Продолжительность: 00: 22: 36
    Качество видео: DVBRip
    Видео: MPEG-2, 720x576@768x576 (4: 3), ~3460 Kbps
    Аудио: MP2, 2 ch, 192 Kbps

    Общее
    Полное имя : D: А к нам цирк приехал (1978).mpg
    Формат : MPEG-PS
    Размер файла : 602 Мбайт
    Продолжительность : 22 м. 36 с.
    Режим общего битрейта : Переменный
    Общий поток : 3725 Кбит/сек
    Видео
    Идентификатор : 224 (0xE0)
    Формат : MPEG Video
    Версия формата : Version 2
    Профиль формата : Main@Main
    Настройки формата : CustomMatrix/BVOP
    Параметр BVOP формата : Да
    Параметр матрицы формата : Выборочная
    Параметр GOP формата : M=3, N=12
    Структура изображения : Frame
    Продолжительность : 22 м. 36 с.
    Вид битрейта : Переменный
    Битрейт : 3458 Кбит/сек
    Максимальный битрейт : 5000 Кбит/сек
    Ширина : 720 пикселей
    Высота : 576 пикселей
    Соотношение сторон : 4: 3
    Частота кадров : 25, 000 кадров/сек
    Стандарт вещания : PAL
    Цветовое пространство : YUV
    Субдискретизация насыщенности : 4: 2: 0
    Битовая глубина : 8 бит
    Тип развёртки : Чересстрочная
    Порядок развёртки : Верхнее поле первое
    Метод сжатия : С потерями
    Бит/(Пиксели*Кадры) : 0.334
    Временной код первого кадра : 00: 00: 00: 00
    Оригинал временного кода : Group of pictures t_head
    GOP, открыто/закрыто : Открыто
    GOP, открыто/закрыто на первом кадре : Закрыто
    Размер потока : 559 Мбайт (93%)
    Аудио
    Идентификатор : 192 (0xC0)
    Формат : MPEG Audio
    Версия формата : Version 1
    Профиль формата : Layer 2
    Продолжительность : 22 м. 36 с.
    Вид битрейта : Постоянный
    Битрейт : 192 Кбит/сек
    Каналы : 2 канала
    Частота : 48, 0 КГц
    Частота кадров : 41, 667 кадра/сек (1152 SPF)
    Метод сжатия : С потерями
    Размер потока : 31, 1 Мбайт (5%)

    Скриншоты для ознакомления



    Все одноименные релизы в Клубе
    Время раздачи: 24/7 (круглосуточно) (до появления первых 3-5 скачавших)


    Онлайн видео Ульф Старк



    А к нам цирк приехал (1978) DVBRip [H.264]
    загрузка...
    Рейтинг →
     (голосов: 1, оценка 5/5, голосовать можно 1 раз )

    Другие торренты по теме:

  • Жизнь как цирк (Похождения брошенного мужа) (2000) SATRip скачать через торрент бесплатно
  • Цирк / The Circus (1928) BDRip [720p] [hand made colored]
  • Лорел Гамильтон | Цирк проклятых (2015) [MP3]
  • Ричард Лаймон | Странствующий цирк вампиров (2014) [M4B|AAC]
  • Цирк (1936) DVDRip [H.264] (черно-белый)
  • Невидимый цирк / The Invisible Circus (2001) DVDRip
  • Мартин Гарднер | Лучшие математические игры и головоломки, или Самый настоящий математический цирк (2009) [DJVU]
  • Чужая игра / Цирк / Circus (2000) DVDRip [H.264]


    • Комментарии (0):

      Информация

      Информация

        Посетители, находящиеся в группе Гости, не могут оставлять комментарии в данной новости.

        ↓ Меню




        ↓ Опрос

        Вы добавили сайт в закладки?
        Да
        Нет


        Top 10 за месяц (Мультфильмы)