.
Авторизация | Регистрация
Хочешь лучшие торренты? Добавь свой email!
Добавить

Торрент скачать бесплатно

» » Свинка Пеппа / Peppa Pig (2016) SATRip [H.264] (Сезон 5, 30 серий из 52) [UKR] торрент скачать бесплатно




    Свинка Пеппа / Peppa Pig (2016) SATRip [H.264] (Сезон 5, 30 серий из 52) [UKR] торрент скачать бесплатно

    Опубликовал: Админ | Дата: 5-11-2017, 05:00 | Просмотров: 0

    Производство: Великобритания, Contender Entertainment
    Жанр: Детский, Развивающий
    Режиссер: Невилль Эстли
    Персонажи: Свинка Пеппа, братик Джордж, мама Свинка, папа Свин и другие

    Описание

    Мультсериал о приключениях симпатичной маленькой свинки. Пеппа живет со своими родителями и маленьким братцем Джорджем. Она обожает играть, наряжаться, бывать в разных местах и заводить новые знакомства, но её самое любимое занятие — прыгать в грязных лужах. Каждый день Пеппы наполнен невероятными приключениями! Необыкновенно смешной и добрый мультсериал подарит прекрасное настроение малышам и их родителям.

    Релиз от: sergiyko
    Продолжительность: 05: 05
    Качество видео: SATRip
    Перевод: Отсутствует
    Язык озвучки: украинский (дубляж ТК ПлюсПлюс)
    Субтитры: отсутствуют
    Видео: AVC/H.264, 720 х 408, ~400 Kbps
    Аудио: MP2, 2 ch, 192 Kbps

    General
    Unique ID : 185566873866467082879519418796813058813 (0x8B9AE1418EAEAA2893D886E79C5002FD)
    Complete name : D: TorrentsMULTPeppa Pig SATRipPeppa Pig S05 SATRipS05E01.Playing Pretend.SATRip.mkv
    Format : Matroska
    Format version : Version 2
    File size : 20.2 MiB
    Duration : 5 min 0 s
    Overall bit rate : 563 kb/s
    Encoded date : UTC 2017-10-25 14: 58: 18
    Writing application : mkvmerge v7.8.0 (\'River Man\') 32bit built on Apr 3 2015 12: 11: 22
    Writing library : libebml v1.3.1 + libmatroska v1.4.2
    Video
    ID : 1
    Format : AVC
    Format/Info : Advanced Video Codec
    Format profile : High@L3.1
    Format settings, CABAC : Yes
    Format settings, RefFrames : 6 frames
    Codec ID : V_MPEG4/ISO/AVC
    Duration : 5 min 0 s
    Bit rate : 360 kb/s
    Width : 720 pixels
    Height : 408 pixels
    Display aspect ratio : 16: 9
    Frame rate mode : Constant
    Frame rate : 25.000 FPS
    Color space : YUV
    Chroma subsampling : 4: 2: 0
    Bit depth : 8 bits
    Scan type : Progressive
    Bits/(Pixel*Frame) : 0.049
    Stream size : 12.9 MiB (64%)
    Writing library : x264 core 152 r2851 ba24899
    Encoding settings : cabac=1/ref=6/deblock=1: 0: 0/analyse=0x3: 0x113/me=umh/subme=9/psy=1/psy_rd=0.40: 0.00/mixed_ref=1/me_range=16/chroma_me=1/trellis=2/8x8dct=1/cqm=0/deadzone=21, 11/fast_pskip=1/chroma_qp_offset=-2/threads=13/lookahead_threads=1/sliced_threads=0/nr=0/decimate=1/interlaced=0/bluray_compat=0/constrained_intra=0/bframes=5/b_pyramid=2/b_adapt=2/b_bias=0/direct=3/weightb=1/open_gop=0/weightp=2/keyint=250/keyint_min=25/scenecut=40/intra_refresh=0/rc_lookahead=60/rc=crf/mbtree=1/crf=20.0/qcomp=0.70/qpmin=0/qpmax=69/qpstep=4/vbv_maxrate=14000/vbv_bufsize=14000/crf_max=0.0/nal_hrd=none/filler=0/ip_ratio=1.40/aq=1: 0.60
    Default : Yes
    Forced : No
    Audio
    ID : 2
    Format : MPEG Audio
    Format version : Version 1
    Format profile : Layer 2
    Codec ID : A_MPEG/L2
    Codec ID/Hint : MP2
    Duration : 5 min 0 s
    Bit rate mode : Constant
    Bit rate : 192 kb/s
    Channel(s) : 2 channels
    Sampling rate : 48.0 kHz
    Compression mode : Lossy
    Stream size : 6.89 MiB (34%)
    Default : Yes
    Forced : No


    Онлайн видео Свинка Пеппа



    Свинка Пеппа/Peppa Pig (2016) SATRip [H.264] (Сезон 5, 30 серий из 52) [UKR]
    загрузка...
    Рейтинг →
     (голосов: 1, оценка 4/5, голосовать можно 1 раз )

    Другие торренты по теме:

  • Свинка Пеппа / Peppa Pig (2004-2012) SATRip (1-4 сезоны: 208 серий из 209) скачать через торрент бесплатно
  • Свинка Пеппа 11 игр вместе [Ru] скачать через торрент бесплатно


    • Комментарии (0):

      Информация

      Информация

        Посетители, находящиеся в группе Гости, не могут оставлять комментарии в данной новости.

        ↓ Меню




        ↓ Опрос

        Вы добавили сайт в закладки?
        Да
        Нет


        Top 10 за месяц (Мультфильмы)