.
Авторизация | Регистрация
Хочешь лучшие торренты? Добавь свой email!
Добавить

Торрент скачать бесплатно

» » Звёздная принцесса и силы зла / Стар против Сил Зла / Star vs. the Forces of Evil (2016) WEB-DL [H.264 / 1080p] (сезон 2, серии 1-19,21-22 из 22) Кириллица (обновляемая) торрент скачать бесплатно




    Звёздная принцесса и силы зла / Стар против Сил Зла / Star vs. the Forces of Evil (2016) WEB-DL [H.264 / 1080p] (сезон 2, серии 1-19,21-22 из 22) Кириллица (обновляемая) торрент скачать бесплатно

    Опубликовал: Админ | Дата: 3-11-2017, 05:00 | Просмотров: 0

    Производство: США/Daron Nefcy Productions, Disney XD, Walt Disney Television Animation
    Жанр: мультфильм, фантастика, фэнтези, комедия, приключения, семейный
    Режиссер: Аарон Хэммерсли, Пьеро Пилузо, Дэвид Вассон

    Актеры
    Иден Шер - Star Butterfly, Адам МакАртур - Marco Diaz, Грэй Гриффин - Queen Butterfly, Алан Тьюдик - Ludo и др.

    Описание

    История о девочке, живущей в ином измерении, по имени Стар Баттерфляй, которая получила в 14 лет волшебную палочку. Но после того, как Стар чуть ли не превратила свой родной город в прах, родители отправили её в другое измерение, которое называется Земля, чтобы жить с семьёй Диаз, которая состоит из добродушных родителей и подростка по имени Марко. Все одноклассники и друзья считают его тихоней, который остерегается даже обыкновенного падения. Марко считает это неправдой, и из-за такой репутации подросток жаждет приключений и опасностей.

    Продолжительность: ~ 00: 22: 00 серия
    Качество видео: WEB-DL
    Перевод: Дублированный, профессиональный -Кириллица
    Видео: AVC/H.264, 1920x1080 (16: 9), ~5 310 kbps
    Аудио Rus: AC3, 48, 0 kHz, 2 ch, 192 kbps - дублированный
    Аудио Eng: AAC, 48, 0 kHz, 2 ch, 151 kbps - оригинал
    General
    Unique ID : 203034606994927011397080038186201270756 (0x98BF0AFDD7E6F67A8F1C8CE7DEF249E4)
    Complete name : Star vs the Forces of Evil S02 DubStar.vs.The.Forces.of.Evil.S02E01E02.My.New.Wand.Ludo.In.The.Wild.1080p.WEB-DL.AAC2.0.H264.mkv
    Format : Matroska
    Format version : Version 4/Version 2
    File size : 918 MiB
    Duration : 22 min 41 s
    Overall bit rate : 5 655 kb/s
    Encoded date : UTC 2016-12-06 15: 48: 11
    Writing application : mkvmerge v9.6.0 (\'Slave To Your Mind\') 64bit
    Writing library : libebml v1.3.4 + libmatroska v1.4.5
    Video
    ID : 1
    Format : AVC
    Format/Info : Advanced Video Codec
    Format profile : High@L4
    Format settings, CABAC : Yes
    Format settings, ReFrames : 4 frames
    Codec ID : V_MPEG4/ISO/AVC
    Duration : 22 min 41 s
    Bit rate : 5 310 kb/s
    Width : 1 920 pixels
    Height : 1 080 pixels
    Display aspect ratio : 16: 9
    Frame rate mode : Constant
    Frame rate : 23.976 (24000/1001) FPS
    Color space : YUV
    Chroma subsampling : 4: 2: 0
    Bit depth : 8 bits
    Scan type : Progressive
    Bits/(Pixel*Frame) : 0.107
    Stream size : 862 MiB (94%)
    Language : English
    Default : Yes
    Forced : No
    Color range : Limited
    Color primaries : BT.709
    Transfer characteristics : BT.709
    Matrix coefficients : BT.709
    Audio #1
    ID : 2
    Format : AC-3
    Format/Info : Audio Coding 3
    Mode extension : CM (complete main)
    Format settings, Endianness : Big
    Codec ID : A_AC3
    Duration : 22 min 41 s
    Bit rate mode : Constant
    Bit rate : 192 kb/s
    Channel(s) : 2 channels
    Channel positions : Front: L R
    Sampling rate : 48.0 kHz
    Frame rate : 31.250 FPS (1536 spf)
    Bit depth : 16 bits
    Compression mode : Lossy
    Stream size : 31.2 MiB (3%)
    Language : Russian
    Default : Yes
    Forced : No
    Audio #2
    ID : 3
    Format : AAC
    Format/Info : Advanced Audio Codec
    Format profile : LC
    Codec ID : A_AAC
    Duration : 22 min 41 s
    Bit rate : 151 kb/s
    Channel(s) : 2 channels
    Channel positions : Front: L R
    Sampling rate : 48.0 kHz
    Frame rate : 46.875 FPS (1024 spf)
    Compression mode : Lossy
    Stream size : 24.5 MiB (3%)
    Language : English
    Default : No
    Forced : No


    Онлайн видео Звёздная принцесса и силы зла



    Звёздная принцесса и силы зла/Стар против Сил Зла/Star vs. the Forces of Evil (2016) WEB-DL [H.264/1080p] (сезон 2, серии 1-19,21-22 из 22) Кириллица (обновляемая)
    загрузка...
    Рейтинг →
     (голосов: 1, оценка 4/5, голосовать можно 1 раз )

    Другие торренты по теме:

  • Звёздная принцесса и силы зла / Star vs. the Forces of Evil (2016) WEB-DL [H.264 / 1080p] (сезон 2, серии 1-2 из 14) Кириллица (обновляемая)
  • Елена Звёздная | Принцесса особого назначения (2017) [MP3]


    • Комментарии (0):

      Информация

      Информация

        Посетители, находящиеся в группе Гости, не могут оставлять комментарии в данной новости.

        ↓ Меню




        ↓ Опрос

        Вы добавили сайт в закладки?
        Да
        Нет


        Top 10 за месяц (Мультфильмы)