.
Авторизация | Регистрация
Хочешь лучшие торренты? Добавь свой email!
Добавить

Торрент скачать бесплатно

» » Lego: Рыцари Нексо / Lego: Nexo Knights (2017) WEBRip (сезон 4, серии 1-10 из 10) торрент скачать бесплатно




    Lego: Рыцари Нексо / Lego: Nexo Knights (2017) WEBRip (сезон 4, серии 1-10 из 10) торрент скачать бесплатно

    Опубликовал: Админ | Дата: 2-11-2017, 05:00 | Просмотров: 0

    Производство: Дания, M2 Entertainment
    Жанр: Мультсериал, детский, приключения, фэнтези
    Режиссер: Питер Гриффитс

    Актеры
    Эрин Мэтьюз, Алессандро Джулиани, Джиллз Пэнтон, Йен Хэнлин, Марика Хендрикс, Винсент Тонг

    Описание

    Вы окунетесь в параллельный мир Средневековья, мир передовых технологий, роботов и рыцарей будущего. В Найтонии царил лад и покой, подданные любили короля и восславляли его. Но в один миг тучи над королевством сгустились – королевский шут Джестро нашел Книгу Монстров и обратился на темную сторону зла. Эта книга несла в себе страшную силу, в ней от первой странички до последней таилось кромешное зло. Подстрекаемый Книгой Монстров Джестро создал себе войско свирепых чудовищ, при поддержке которого намеревался завладеть Найтонией и присвоить себе все богатства королевства. Теперь вся надежда на выпускников Рыцарской Академии Нексо, лишь только они способны противостоять Джестро и его армии монстров. Клей Морингтон, Аарон Фокс, Лэнс Ричмонд, Эксл и единственная девушка-рыцарь Мэйси Хелберт вместе с голографическим волшебником Мерлоком будут путешествовать по мобильной крепости Фортрекс и с помощью своих щитов скачивать удивительные нексо-силы, способные одолеть злого Джестро и Книгу Монстров. Вот только достаточно ли будет этих сил, чтобы спасти Найтонию и одержать победу над огненными демонами?

    Возраст: 6+ (зрителям, достигшим 6 лет)
    Дата мировой премьеры: 21 августа 2017

    Релиз от: ant31
    Продолжительность: ~ 00: 22: 00 серия
    Качество видео: WEBRip
    Перевод: Дублированный
    Субтитры: Отсутствуют
    Видео: MPEG4, XviD, 720x400 (16: 9), 24.000 fps, 1 704 Kbps (0.247 bit/pixel)
    Аудио: MP3, 48.0 KHz, 2 ch, 128 Kbps, CBR
    Код: выделить все
    Общее
    Полное имя : D:[1]МультфильмыЛегоLego Nexo Knights - 4 (2017)1. Выходные у Халбертов.avi
    Формат : AVI
    Формат/Информация : Audio Video Interleave
    Размер файла : 290 Мбайт
    Продолжительность : 22 м.
    Общий поток : 1842 Кбит/сек
    Программа кодирования : VirtualDubMod 1.5.10.3 |www.virtualdub-fr.org|| (build 2550/release)
    Библиотека кодирования : VirtualDubMod build 2550/release
    Видео
    Идентификатор : 0
    Формат : MPEG-4 Visual
    Профиль формата : Advanced Simple@L5
    Параметр BVOP формата : 1
    Параметр QPel формата : Нет
    Параметр GMC формата : Без точки перехода
    Параметр матрицы формата : Default (MPEG)
    Идентификатор кодека : XVID
    Идентификатор кодека/Подсказка : XviD
    Продолжительность : 22 м.
    Битрейт : 1704 Кбит/сек
    Ширина : 720 пикселей
    Высота : 400 пикселей
    Соотношение сторон : 16:9
    Частота кадров : 24, 000 кадра/сек
    Цветовое пространство : YUV
    Субдискретизация насыщенности : 4:2:0
    Битовая глубина : 8 бит
    Тип развёртки : Прогрессивная
    Метод сжатия : С потерями
    Бит/(Пиксели*Кадры) : 0.247
    Размер потока : 268 Мбайт (93%)
    Библиотека кодирования : XviD 1.2.1 (UTC 2008-12-04)
    Аудио
    Идентификатор : 1
    Формат : MPEG Audio
    Версия формата : Version 1
    Профиль формата : Layer 3
    Идентификатор кодека : 55
    Идентификатор кодека/Подсказка : MP3
    Продолжительность : 22 м.
    Вид битрейта : Постоянный
    Битрейт : 128 Кбит/сек
    Каналы : 2 канала
    Частота : 48, 0 КГц
    Метод сжатия : С потерями
    Размер потока : 20, 1 Мбайт (7%)
    Выравнивание : Соединение по промежуткам
    Продолжительность промежутка : 42 мс. (1, 00 видеокадр)
    Время предзагрузки промежутка : 504 мс.
    Библиотека кодирования : LAME3.98r
    Настройки программы : -m s -V 4 -q 2 -lowpass 17 -b 128


    Онлайн видео Lego: Рыцари Нексо



    Lego: Рыцари Нексо/Lego: Nexo Knights (2017) WEBRip (сезон 4, серии 1-10 из 10)
    загрузка...
    Рейтинг →
     (голосов: 1, оценка 4/5, голосовать можно 1 раз )

    Другие торренты по теме:

  • Lego: Рыцари Нексо / Lego: Nexo Knights (2015) WEBRip (сезон 1, серии 1-10 из 10)
  • Lego: Рыцари Нексо / Lego: Nexo Knights (2016) WEBRip (сезон 2, серии 1-10 из 10)
  • Lego: Рыцари Нексо / Lego: Nexo Knights (2017) WEBRip (сезон 3, серии 1-10 из 10)
  • Лего Рыцари Нексо / Lego Nexo Knights (2015) WEB-DL [H.264 / 1080p-LQ] (10 серий из 10) [UKR]
  • Лего Рыцари Нексо / Lego Nexo Knights (2016) HDTVRip [H.264 / 720р-LQ] (Сезон: 2, серии: 10 из 10) [UKR, EN]
  • Лего Рыцари Нексо / Lego Nexo Knights (2016) WEB-DL [H.264 / 720р-LQ] (Сезон: 3, серии: 10 из 10) [UKR]
  • Лего Рыцари Нексо / Lego Nexo Knights (2017) WEB-DL [H.264 / 1080р-LQ] (Сезон: 4, серии: 10 из 10) [UKR]


    • Комментарии (0):

      Информация

      Информация

        Посетители, находящиеся в группе Гости, не могут оставлять комментарии в данной новости.

        ↓ Меню




        ↓ Опрос

        Вы добавили сайт в закладки?
        Да
        Нет


        Top 10 за месяц (Мультфильмы)