.
Авторизация | Регистрация
Хочешь лучшие торренты? Добавь свой email!
Добавить

Торрент скачать бесплатно

» » Лего Рыцари Нексо / Lego Nexo Knights (2017) WEB-DL [H.264 / 1080р-LQ] (Сезон: 4, серии: 10 из 10) [UKR] торрент скачать бесплатно




    Лего Рыцари Нексо / Lego Nexo Knights (2017) WEB-DL [H.264 / 1080р-LQ] (Сезон: 4, серии: 10 из 10) [UKR] торрент скачать бесплатно

    Опубликовал: Админ | Дата: 1-11-2017, 05:00 | Просмотров: 0

    Производство: Дания, M2 Entertainment
    Жанр: Детский, Приключения, Фентези
    Режиссер: Питер Гриффитс

    Описание

    Вы окунетесь в параллельный мир Средневековья, мир передовых технологий, роботов и рыцарей будущего. В Найтонии царил лад и покой, подданные любили короля и восславляли его. Но в один миг тучи над королевством сгустились – королевский шут тро нашел Книгу Монстров и обратился на темную сторону зла. Эта книга несла в себе страшную силу, в ней от первой странички до последней таилось кромешное зло. Подстрекаемый Книгой Монстров Джестро создал себе войско свирепых чудовищ, при поддержке которого намеревался завладеть Найтонией и присвоить себе все богатства королевства.

    Релиз от: sergiyko
    Продолжительность: 00: 22: 00 серия
    Качество видео: WEB-DL
    Перевод: Дублированный
    Язык: украинский
    Озвучка/Автор перевода: ТК ПлюсПлюс
    Субтитры: отсутствуют
    Видео: AVC/H.264, 1920 х 1080, ~3263 Kbps
    Аудио: AC3, 2 ch, 192 Kbps
    01 Вікенд у Гальберті
    02 Сірий лицар
    03 Хороший лихий і жадюга
    04 На таємній службі його величності
    05 Чувак у Гальпах
    06 Череполам
    07 Кам\'яне серце
    08 Між молотом і ковалдом
    09 Марш колоса
    10 Падіння

    General
    Unique ID : 228286288274132282935456888588473779671 (0xABBE57004795CCFFB4EFDA8B1064C5D7)
    Complete name : E: MULTFILMSLego Nexo KnightsNexo Knights S04 WEBRip 1080pNexo.Knights.S04E01.Weekend.at.Halberts.1080p.WEBRip.Ukr.mkv
    Format : Matroska
    Format version : Version 4/Version 2
    File size : 544 MiB
    Duration : 22 min 0 s
    Overall bit rate : 3 457 kb/s
    Movie name : Nexo Knights S04 1080p WEBRip by sergiyko
    Encoded date : UTC 2017-09-27 17: 40: 28
    Writing application : mkvmerge v15.0.0 (\'Duel with the Devil\') 64-bit
    Writing library : libebml v1.3.5 + libmatroska v1.4.5
    Video
    ID : 1
    Format : AVC
    Format/Info : Advanced Video Codec
    Format profile : High@L4
    Format settings, CABAC : Yes
    Format settings, RefFrames : 2 frames
    Codec ID : V_MPEG4/ISO/AVC
    Duration : 22 min 0 s
    Bit rate : 3 263 kb/s
    Width : 1 920 pixels
    Height : 1 080 pixels
    Display aspect ratio : 16: 9
    Frame rate mode : Constant
    Frame rate : 24.000 FPS
    Color space : YUV
    Chroma subsampling : 4: 2: 0
    Bit depth : 8 bits
    Scan type : Progressive
    Bits/(Pixel*Frame) : 0.066
    Stream size : 513 MiB (94%)
    Title : S04E01 Weekend at Halberts
    Language : English
    Default : Yes
    Forced : No
    Color range : Limited
    Color primaries : BT.709
    Transfer characteristics : BT.709
    Matrix coefficients : BT.709
    Audio
    ID : 2
    Format : AC-3
    Format/Info : Audio Coding 3
    Format settings, Endianness : Big
    Codec ID : A_AC3
    Duration : 22 min 0 s
    Bit rate mode : Constant
    Bit rate : 192 kb/s
    Channel(s) : 2 channels
    Channel positions : Front: L R
    Sampling rate : 48.0 kHz
    Frame rate : 31.250 FPS (1536 SPF)
    Bit depth : 16 bits
    Compression mode : Lossy
    Stream size : 30.2 MiB (6%)
    Title : DUB AC3 | ПлюсПлюс
    Language : Ukrainian
    Service kind : Complete Main
    Default : Yes
    Forced : No

    Скриншоты для ознакомления



    Все одноименные релизы в Клубе
    Время раздачи: Пн-Пт с 18: 00 до 24: 00 (до появления первых 3-5 скачавших)


    Онлайн видео Лего Рыцари Нексо



    Лего Рыцари Нексо/Lego Nexo Knights (2017) WEB-DL [H.264/1080р-LQ] (Сезон: 4, серии: 10 из 10) [UKR]
    загрузка...
    Рейтинг →
     (голосов: 1, оценка 5/5, голосовать можно 1 раз )

    Другие торренты по теме:

  • Лего Рыцари Нексо / Lego Nexo Knights (2015) WEB-DL [H.264 / 1080p-LQ] (10 серий из 10) [UKR]
  • Лего Рыцари Нексо / Lego Nexo Knights (2016) HDTVRip [H.264 / 720р-LQ] (Сезон: 2, серии: 10 из 10) [UKR, EN]
  • Лего Рыцари Нексо / Lego Nexo Knights (2016) WEB-DL [H.264 / 720р-LQ] (Сезон: 3, серии: 10 из 10) [UKR]


    • Комментарии (0):

      Информация

      Информация

        Посетители, находящиеся в группе Гости, не могут оставлять комментарии в данной новости.

        ↓ Меню




        ↓ Опрос

        Вы добавили сайт в закладки?
        Да
        Нет


        Top 10 за месяц (Мультфильмы)