.
Авторизация | Регистрация
Хочешь лучшие торренты? Добавь свой email!
Добавить

Торрент скачать бесплатно

» » Эмоджи фильм / The Emoji Movie (2017) HDTVRip [H.264 / 720p-LQ] [AD] торрент скачать бесплатно




    Эмоджи фильм / The Emoji Movie (2017) HDTVRip [H.264 / 720p-LQ] [AD] торрент скачать бесплатно

    Опубликовал: Админ | Дата: 21-10-2017, 18:15 | Просмотров: 1

    Производство: США
    Жанр: Комедия, Приключения
    Режиссер: Энтони Леондис
    Персонажи: ТиДжей Миллер, Джеймс Корден, Анна Фэрис, Майя Рудольф, Стивен Райт, Дженнифер Кулидж, Патрик Стюарт, Кристина Агилера, София Вергара, Рэйчел Рэй

    Описание

    Знаете ли вы, что внутри каждого смартфона есть красочный городок Текстополис, в котором живут эмоджи? И что они ужасно радуются, когда владелец телефона именно их выбирает для своего сообщения? Каждый из эмоджи отвечает лишь за одну эмоцию, и только Джин может выражать несколько эмоций сразу. Он очень хочет стать таким же, как и его собратья, и для этого вместе со своими друзьями пускается в увлекательное путешествие по приложениям телефона в поисках программы, которая поможет ему измениться. Неожиданно герои узнают о грозной опасности, нависшей над городом. Смогут ли друзья спасти Текстополис и всех его обитателей?

    Возраст: 6+ (зрителям, достигшим 6 лет)
    Рейтинг MPAA: PG (рекомендуется присутствие родителей)
    Дата мировой премьеры: 28 июля 2017
    Дата российской премьеры: 17 августа 2017, WDSSPR
    Продолжительность: 01: 19: 17
    Качество видео: HDTV
    Перевод: Дублированный
    Субтитры: Корейский (вшитые, неотключаемые)
    Реклама: присутствуют текстовые и видео вставки рекламы
    Видео: AVC/H.264, 1280x720, ~4095 kbps
    Аудио: AC3, 2 ch, 384 kbps

    Общее
    Уникальный идентификатор : 199260907203823609864252959897517651780 (0x95E8413A1C8AD18C934C3C809D157744)
    Полное имя : B: РаздачаEMoDJee.2O17.D.HDTV.72Op_KOSHARA.mkv
    Формат : Matroska
    Версия формата : Version 2
    Размер файла : 2, 55 Гбайт
    Продолжительность : 1 ч. 21 м.
    Режим общего битрейта : Переменный
    Общий поток : 4480 Кбит/сек
    Дата кодирования : UTC 2017-10-05 18: 24: 42
    Программа кодирования : mkvmerge v8.3.0 (\'Over the Horizon\') 64bit
    Библиотека кодирования : libebml v1.3.1 + libmatroska v1.4.2
    Видео
    Идентификатор : 1
    Формат : AVC
    Формат/Информация : Advanced Video Codec
    Профиль формата : High@L4.1
    Настройки формата : CABAC/9 Ref Frames
    Параметр CABAC формата : Да
    Параметр RefFrames формата : 9 кадров
    Идентификатор кодека : V_MPEG4/ISO/AVC
    Продолжительность : 1 ч. 21 м.
    Вид битрейта : Переменный
    Битрейт : 4095 Кбит/сек
    Максимальный битрейт : 4600 Кбит/сек
    Ширина : 1280 пикселей
    Высота : 720 пикселей
    Соотношение сторон : 16: 9
    Режим частоты кадров : Постоянный
    Частота кадров : 23, 976 (24000/1001) кадра/сек
    Стандарт вещания : Component
    Цветовое пространство : YUV
    Субдискретизация насыщенности : 4: 2: 0
    Битовая глубина : 8 бит
    Тип развёртки : Прогрессивная
    Бит/(Пиксели*Кадры) : 0.185
    Размер потока : 2, 33 Гбайт (91%)
    Default : Да
    Forced : Нет
    Цветовой диапазон : Limited
    Основные цвета : BT.709
    Характеристики трансфера : BT.709
    Коэффициенты матрицы : BT.709
    Аудио
    Идентификатор : 2
    Формат : AC-3
    Формат/Информация : Audio Coding 3
    Параметр Endianness формата : Big
    Идентификатор кодека : A_AC3
    Продолжительность : 1 ч. 21 м.
    Вид битрейта : Постоянный
    Битрейт : 384 Кбит/сек
    Каналы : 2 канала
    Расположение каналов : Front: L R
    Частота : 48, 0 КГц
    Частота кадров : 31, 250 кадров/сек (1536 SPF)
    Битовая глубина : 16 бит
    Метод сжатия : С потерями
    Размер потока : 224 Мбайт (9%)
    ServiceKind/String : Complete Main
    Default : Да
    Forced : Нет
    Скриншоты

    Все одноименные релизы в Клубе
    Время раздачи: до появления первых 3-5 скачавших

    Эмоджи фильм/The Emoji Movie (2017) HDTVRip [H.264/720p-LQ] [AD]
    загрузка...
    Рейтинг →
     (голосов: 1, оценка 5/5, голосовать можно 1 раз )

    Другие торренты по теме:

  • Эмоджи фильм / The Emoji Movie (2017) TS [AD]
  • Эмоджи фильм / The Emoji Movie (2017) WEBRip [H.264 / 720p-LQ] [EN / KOR Sub]
  • Эмоджи фильм / The Emoji Movie (2017) BDRip [H.264 / 1080p]
  • Эмоджи фильм / The Emoji Movie (2017) BDRip [H.264]
  • Эмоджи фильм / The Emoji Movie (2017) BDRip
  • Эмоджи фильм / The Emoji Movie (2017) BDRip [H.264 / 720p-LQ]


    • Комментарии (0):

      Информация

      Информация

        Посетители, находящиеся в группе Гости, не могут оставлять комментарии в данной новости.

        ↓ Меню




        ↓ Опрос

        Вы добавили сайт в закладки?
        Да
        Нет


        Top 10 за месяц (Мультфильмы)