.
Авторизация | Регистрация
Хочешь лучшие торренты? Добавь свой email!
Добавить

Торрент скачать бесплатно

» » Гуфи и его команда / Goof Troop (1992) WEB-Rip [H.264 / 1080p] (Сезон 1-2, серий 78 из 78) торрент скачать бесплатно




    Гуфи и его команда / Goof Troop (1992) WEB-Rip [H.264 / 1080p] (Сезон 1-2, серий 78 из 78) торрент скачать бесплатно

    Опубликовал: Админ | Дата: 9-10-2017, 05:00 | Просмотров: 0

    Производство: США
    Жанр: Рисованная анимация, Приключения, Комедия
    Режиссер: Роберт Тэйлор, Карен Петерсон

    Описание
    Гуфи — антропоморфная собака, попадающая в различные истории. Однажды Гуфи решает отвезти своего сына Макса в родной несуществующий город Спунервиль, где у него остались школьные друзья — Пит и его жена Пэг. Однако Питу не понравился переезд Гуфи, так как он всё ещё помнил бейсбольный матч, который их команда проиграла по вине Гуфи, поэтому он решает побыстрее отправить Гуфи обратно. Зато Пэг всегда нравился Гуфи, и она продала ему дом, который Пит хотел снести и вырыть на его месте пруд. Теперь Пит стал ещё больше не любить Гуфи.
    Помимо сюжетной линии отношений Гуфи с Питом, в сериале присутствует не менее важная линия отношений двух друзей — Макса и Пи-Джея.

    Возраст: 6+ (зрителям, достигшим 6 лет)
    Релиз от: sk1987 (DAYNA-Records)
    Продолжительность: ~ серия по 00: 22: 00
    Качество видео: WEB-DL
    Перевод: Дублированный
    Субтитры: отсутствуют
    Реклама: нет
    Видео: AVC/H.264, 1440x1080, ~17.9 Mbps
    Аудио1: AC3, 2 ch, 224 kbps rus
    Аудио2: AC3, 2 ch, 224 kbps eng
    Список серий :
    01 - Тридцать три несчастья (Everythings Coming Up Goofy)
    02 - Соседушка (Good Neighbor Goof)
    03 - Каникулы на планете Земля (You Camp Take It With You)
    04 - Что написано пером... (All The Goof That Is Fit To Print)
    05 - Достойный доверия (In Goof We Trust)
    06 - Гуфи - налоговый инспектор (Inspector Goofy)
    07 - Операция Пицца (A Pizza The Action)
    08 - Движимость (Unreal Estate)
    09 - Ночной кинокошмар (Midnight Movie Madness)
    10 - Отдых вдвоём (Cabana Fever)
    11 - Фальшивый Гуфи (Counterfeit Goof)(SD)
    12 - Необыкновенный приз (Meanwhile, Back At The Кamp)
    13 - Спорная территория (Goof Under My Roof)
    14 - Аэрошоу (Hot Air)
    15 - Кладоискатели (Slightly Dinghy)
    16 - Берегись Пит-мобиля (Pete Is Day At The Кaces)
    17 - Добро, зло и Гуфи (The Good, The Bad The Goofy)
    18 - Офицер Гуфи (Major Goof)
    19 - Гуфи билдинг (Buddy Building)
    20 - Невероятный громила (The Incredible Bulk)
    21 - Нет Гуфи без огня (Where There Is Smoke, There Is Goof)
    22 - Следы на снегу (Winter Bluderland)
    23 - Суета вокруг мусора (Waste Makes haste)
    24 - Поймать Гуфи (To Catch a Goof)
    25 - Гуфи против мафии (The Ungoofables)
    26 - Гонки века (Tub Be or Not Tub Be)
    27 - Нашествие инопланетян (Close Encounters of the Weird Mime)
    28 - День судьбы (Date with Destiny)
    29 - Пытка арифметикой (Axed by Addition)
    30 - Техника на грани фантастики (Maximum Protection)
    31 - Король тусовки (Leader of the Pack)
    32 - Победит сильнейший (Gymnauseum)
    33 - Пиджинаторы (Lethal goofin)
    34 - Игра в убийство или макароны по-флотски (For Pete is sake)
    35 - Мойщики окон (Window pains)
    36 - Танцы с очками (Gunfight at the okie-dokie corral)
    37 - Бейсбол не нашего детства (Take me out of the ball game)
    38 - Макс, Пи-джей и медные трубы (Shake, rattle Goof)
    39 - Мистер Гуфи, до свидания (Goodbye Mr. Goofy)
    40 - Полетай со мной (Come fly with me)
    41 - Не было бы счастья, да Гуфи помог (Where there is a will, there is a Goof)
    42 - Умирающий Пит (Terminal Pete)
    43 - Хозяюшка (Mrs spoonerville)
    44 - Отпуск на Гавайях (Wrecks, lies videotape)
    45 - Золотая лихорадка (Fool is gold)
    46 - Гуфин Гуд и хмурые ребята (Goofin Hood melcholy men)
    47 - Огни большого города (Big city blues)
    48 - Утиная охота (Goofs of a feather)
    49 - В пятницу тринадцатого или танцы с граблями (Rally around Goof)
    50 - Франкенгуф (Frankengoof)
    51 - Скачки с препятствиями (Pete\\'s day at the races)
    52 - Самозванцы (As Goof would have it)
    53 - Семейный слёт (Calling all Goofs)
    54 - Дом с привидениями (Hallow-weenies)
    55 - Партнёры по несчастью (Partners in grime)
    56 - Готовь наследника летом (To heir is human)
    57 - Нас двое и малыш (And baby makes three)
    58 - Эйнштейн Гуфи (Equals MC Goof)
    59 - Кошачья радость (Cat is entertainment)
    60 - Ученье - свет (Edcucating Goofy)
    61 - Народный избранник (A Goof of the people)
    62 - Волшебный оркестр (Dr.Horatio is Magic Orchestra)
    63 - Кошмар на улице Гуфов (Nightmare of the Living Goof)
    64 - Когда слишком много Гуфи (Goof Fellas)
    65 - Пэг - королева джунглей (Peg Oh The Jungle)
    66 - Загадочное яйцо (Great Egg-Spectations)
    67 - Максимум небезопасности (Maximum Insecurity)
    68 - Цирк, да и только (Three rig bind)
    69 - Лихой байкер (Queasy Rider)
    70 - Щенячьи нежности (Puppy Love)
    71 - Сливки общества (Goofin Up The Social Ladder)
    72 - Шерлок Гуф (Sherlock Goof)
    73 - Талантливый Макс (Talent To The Maxx)
    74 - Клан пещерных Гуфи (Clan Of The Cave Goof)
    75 - Шаг в вечность (From Air To Eternity)
    76 - Пистольгейст (Pistolgeist)
    77 - Дождь милосердия (Bringing on the rain)
    78 - Чай для двоих (Tee For Two)

    General
    Unique ID : 227291191386211645849987982574316960435 (0xAAFEB0EFC561FF258E010F4801343AB3)
    Complete name : F: \Гуфыч HD\Гуфи и его команда (HD)\01 - Тридцать три несчастья.mkv
    Format : Matroska
    Format version : Version 4/Version 2
    File size : 2.81 GiB
    Duration : 21mn 57s
    Overall bit rate : 18.3 Mbps
    Encoded date : UTC 2017-09-14 13: 52: 57
    Writing application : mkvmerge v15.0.0 (\\'Duel with the Devil\\') 64-bit
    Writing library : libebml v1.3.5 + libmatroska v1.4.5
    Video
    ID : 1
    Format : AVC
    Format/Info : Advanced Video Codec
    Format profile : High@L4.1
    Format settings, CABAC : Yes
    Format settings, ReFrames : 4 frames
    Codec ID : V_MPEG4/ISO/AVC
    Duration : 21mn 57s
    Bit rate : 17.9 Mbps
    Width : 1 440 pixels
    Height : 1 080 pixels
    Display aspect ratio : 4: 3
    Frame rate mode : Constant
    Frame rate : 25.000 fps
    Original frame rate : 23.976 (24000/1001) fps
    Color space : YUV
    Chroma subsampling : 4: 2: 0
    Bit depth : 8 bits
    Scan type : Progressive
    Bits/(Pixel*Frame) : 0.460
    Stream size : 2.74 GiB (98%)
    Writing library : x264 core 148 r2638 7599210
    Encoding settings : cabac=1/ref=4/deblock=1: -3: -3/analyse=0x3: 0x133/me=umh/subme=10/psy=1/psy_rd=1.00: 0.00/mixed_ref=1/me_range=48/chroma_me=1/trellis=2/8x8dct=1/cqm=0/deadzone=21, 11/fast_pskip=1/chroma_qp_offset=-2/threads=24/lookahead_threads=4/sliced_threads=0/nr=0/decimate=0/interlaced=0/bluray_compat=0/constrained_intra=0/bframes=8/b_pyramid=2/b_adapt=2/b_bias=0/direct=3/weightb=1/open_gop=0/weightp=2/keyint=240/keyint_min=23/scenecut=40/intra_refresh=0/rc=crf/mbtree=0/crf=16.0/qcomp=0.60/qpmin=0/qpmax=69/qpstep=4/ip_ratio=1.30/pb_ratio=1.20/aq=3: 0.70
    Default : Yes
    Forced : No
    Audio #1
    ID : 2
    Format : AC-3
    Format/Info : Audio Coding 3
    Mode extension : CM (complete main)
    Format settings, Endianness : Big
    Codec ID : A_AC3
    Duration : 21mn 56s
    Bit rate mode : Constant
    Bit rate : 224 Kbps
    Channel(s) : 2 channels
    Channel positions : Front: L R
    Sampling rate : 48.0 KHz
    Frame rate : 31.250 fps (1536 spf)
    Compression mode : Lossy
    Stream size : 35.2 MiB (1%)
    Title : PTP 1994
    Language : Russian
    Default : Yes
    Forced : Yes
    Audio #2
    ID : 3
    Format : AC-3
    Format/Info : Audio Coding 3
    Mode extension : CM (complete main)
    Format settings, Endianness : Big
    Codec ID : A_AC3
    Duration : 21mn 57s
    Bit rate mode : Constant
    Bit rate : 224 Kbps
    Channel(s) : 2 channels
    Channel positions : Front: L R
    Sampling rate : 48.0 KHz
    Frame rate : 31.250 fps (1536 spf)
    Compression mode : Lossy
    Stream size : 35.2 MiB (1%)
    Language : English
    Default : No
    Forced : No


    Онлайн видео Гуфи и его команда



    Гуфи и его команда/Goof Troop (1992) WEB-Rip [H.264/1080p] (Сезон 1-2, серий 78 из 78)
    загрузка...
    Рейтинг →
     (голосов: 1, оценка 3/5, голосовать можно 1 раз )

    Другие торренты по теме:

  • Три мушкетера. Микки, Дональд, Гуфи / Mickey, Donald, Goofy: The Three Musketeers (2004) BDRip [720p] скачать через торрент бесплатно
  • Три мушкетера: Микки, Дональд, Гуфи / Mickey, Donald, Goofy: The Three Musketeers (2004) HDRip [H.264] [MP4|960х400] скачать через торрент бесплатно
  • Три мушкетера. Микки, Дональд, Гуфи / Mickey, Donald, Goofy: The Three Musketeers (2004) BDRemux [H.264 / 1080p]


    • Комментарии (0):

      Информация

      Информация

        Посетители, находящиеся в группе Гости, не могут оставлять комментарии в данной новости.

        ↓ Меню




        ↓ Опрос

        Вы добавили сайт в закладки?
        Да
        Нет


        Top 10 за месяц (Мультфильмы)