.
Авторизация | Регистрация
Хочешь лучшие торренты? Добавь свой email!
Добавить

Торрент скачать бесплатно

» » Астерикс и Обеликс. Коллекция мультфильмов / Asterix and Obelix (1967 - 2014) BDRip [H.265 / 1080p] [10-bit] торрент скачать бесплатно




    Астерикс и Обеликс. Коллекция мультфильмов / Asterix and Obelix (1967 - 2014) BDRip [H.265 / 1080p] [10-bit] торрент скачать бесплатно

    Опубликовал: Админ | Дата: 6-10-2017, 05:00 | Просмотров: 0

    Производство: Франция, Бельгия, Дания, Германия, Испания/Belvision, Dargaud Films, Gaumont International, Les Productions Rene Goscinny, Gutenberghus, Extrafilm, Hahn Film AG, Milímetros S.A., 2d3D Animations, A. Film, M6, M6 Films, Mandarin SAS, TPS Star, M6 Studio, Grid Animation
    Жанр: Рисованная анимация, Приключения, Комедия
    Режиссер: Рей Госсенс, Рене Госинни, Альбер Юдерзо, Гаэтан Брицци, Пол Брицци, Пино Ван Ламсвеерде, Филипп Гримон, Герхард Хан, Стефан Фьелдмарк, Джеспер Мюллер, Александр Астье, Луис Клиши
    Персонажи: Роже Карель, Пьер Торнад, Жак Морель, Анри Лабюсьер

    Описание

    Астерикс — вымышленный галл. Герой ряда европейских комиксов, девяти мультфильмов и четырёх комедийных художественных фильмов, входящих в цикл Астерикс и Обеликс. В этих произведениях Астерикс и его лучший друг Обеликс, пользуясь сваренным друидом волшебным зельем, ведут борьбу с римлянами, во главе с Цезарем, вторгнувшимися в Галлию.
    Возраст: 6+ (зрителям, достигшим 6 лет)
    Релиз от: Goor80
    Продолжительность: 01: 07: 30 | 01: 12: 21 | 01: 16: 31 | 01: 18: 39 | 01: 19: 58 | 01: 24: 45 | 01: 18: 13 | 01: 25: 31
    Качество видео: BDRip
    Перевод: Многоголосый закадровый, профессиональный (R5); дублированный
    Субтитры: русские, английские
    Видео: HEVC/H.265, 1456x1072 - 1920x1040, ~7100 Kbps - ~8995 Kbps
    Аудио 1: AC3, 2 ch, 192 Kbps; DTS, 2 ch | 6 ch, 755 Kbps | 1509 Kbps (русский)
    Аудио 2: DTS, 2 ch | 6 ch, 768 Kbps | 1509 Kbps (французский)
    Производство: Франция, Бельгия/Belvision, Dargaud Films
    Жанр: Рисованная анимация, Приключения, Комедия
    Режиссер: Рей Госсенс
    Персонажи:

    Описание

    50 лет до нашей эры. В одной маленькой деревушке на окраине Римской империи живут свободолюбивые галлы, которые знают рецепт приготовления волшебного зелья, придающего им невероятную силу и позволяет противостоять римскому императору и его войску. Но не знают они, что римский центурион Фонус Балонус задумал разузнать секрет таинственной силы, помогающей им побеждать врага...

    Возраст: 0+ (для любой зрительской аудитории)
    Релиз от: Goor80
    Продолжительность: 01: 07: 30
    Качество видео: BDRip
    Перевод: Многоголосый закадровый, профессиональный (R5)
    Субтитры: русские
    Видео: HEVC/H.265, 1456x1072, ~7100 Kbps
    Аудио 1: AC3, 2 ch, 192 Kbps (русский)
    Аудио 2: DTS, 2 ch, 768 Kbps (французский)

    Общее
    Уникальный идентификатор : 237730779501726450207225188736238012880 (0xB2D9485EAA82D722A20B2E4973FEC9D0)
    Полное имя : E: \Video\Астерикс. Сборник мультфильмов\1967 Астерикс из Галлии (Asterix le Gaulois).mkv
    Формат : Matroska
    Версия формата : Version 4/Version 2
    Размер файла : 3, 81 Гбайт
    Продолжительность : 1 ч. 7 м.
    Общий поток : 8078 Кбит/сек
    Название фильма : Астерикс из Галлии/Astérix le Gaulois
    Дата кодирования : UTC 2017-09-15 07: 56: 10
    Программа кодирования : mkvmerge v13.0.0 (\\'The Juggler\\') 64bit
    Библиотека кодирования : libebml v1.3.4 + libmatroska v1.4.5
    Авторское право : Encoded by Goor80
    Обложка : Yes
    Attachments : cover.png
    Released : Buba5473 for NNM-lub
    Видео
    Идентификатор : 1
    Формат : HEVC
    Формат/Информация : High Efficiency Video Coding
    Профиль формата : Main 10@L4@Main
    Идентификатор кодека : V_MPEGH/ISO/HEVC
    Продолжительность : 1 ч. 7 м.
    Битрейт : 7100 Кбит/сек
    Ширина : 1456 пикселей
    Высота : 1072 пикселя
    Соотношение сторон : 4: 3
    Режим частоты кадров : Постоянный
    Частота кадров : 23, 976 (24000/1001) кадра/сек
    Цветовое пространство : YUV
    Субдискретизация насыщенности : 4: 2: 0
    Битовая глубина : 10 бит
    Бит/(Пиксели*Кадры) : 0.190
    Размер потока : 3, 35 Гбайт (88%)
    Default : Да
    Forced : Нет
    Аудио #1
    Идентификатор : 2
    Формат : AC-3
    Формат/Информация : Audio Coding 3
    Режим : Dolby Digital
    Параметр Endianness формата : Big
    Идентификатор кодека : A_AC3
    Продолжительность : 1 ч. 7 м.
    Вид битрейта : Постоянный
    Битрейт : 192 Кбит/сек
    Каналы : 2 канала
    Расположение каналов : Front: L R
    Частота : 48, 0 КГц
    Частота кадров : 31, 250 кадров/сек (1536 spf)
    Битовая глубина : 16 бит
    Метод сжатия : С потерями
    Размер потока : 92, 7 Мбайт (2%)
    Заголовок : Перевод: Профессиональный (многоголосый закадровый) R5
    Язык : Russian
    ServiceKind/String : Complete Main
    Default : Да
    Forced : Нет
    Аудио #2
    Идентификатор : 3
    Формат : DTS
    Формат/Информация : Digital Theater Systems
    Режим : 16
    Параметр Endianness формата : Big
    Идентификатор кодека : A_DTS
    Продолжительность : 1 ч. 7 м.
    Вид битрейта : Постоянный
    Битрейт : 768 Кбит/сек
    Каналы : 2 канала
    Расположение каналов : Front: L R
    Частота : 48, 0 КГц
    Частота кадров : 93, 750 кадра/сек (512 spf)
    Битовая глубина : 16 бит
    Метод сжатия : С потерями
    Размер потока : 371 Мбайт (10%)
    Язык : French
    Default : Нет
    Forced : Нет
    Текст
    Идентификатор : 4
    Формат : PGS
    Режим смешивания : zlib
    Идентификатор кодека : S_HDMV/PGS
    Идентификатор кодека/Информация : Picture based subtitle format used on BDs/HD-DVDs
    Продолжительность : 1 ч. 6 м.
    Битрейт : 31, 7 Кбит/сек
    ElementCount : 1168
    Размер потока : 15, 1 Мбайт (0%)
    Язык : Russian
    Default : Да
    Forced : Нет
    Меню
    00: 00: 00.000 : en: Chapter 01
    00: 08: 09.864 : en: Chapter 02
    00: 18: 22.559 : en: Chapter 03
    00: 28: 51.062 : en: Chapter 04
    00: 38: 02.989 : en: Chapter 05
    00: 42: 50.442 : en: Chapter 06
    00: 50: 47.794 : en: Chapter 07
    00: 59: 47.333 : en: Chapter 08
    XMP
    Xmp.video.FileName : E: \Video\Астерикс. Сборник мультфильмов\1967 Астерикс из Галлии (Asterix le Gaulois).mkv
    Xmp.video.FileSize : -195.559
    Xmp.video.MimeType : video/matroska
    Xmp.video.EBMLVersion : 1
    Xmp.video.EBMLReadVersion : 1
    Xmp.video.DocType : matroska
    Xmp.video.DocTypeVersion : 4
    Xmp.video.DocTypeReadVersion : 2
    Xmp.video.TimecodeScale : 0.001
    Xmp.video.MuxingApp : libebml v1.3.4 + libmatroska v1.4.5
    Xmp.video.WritingApp : mkvmerge v13.0.0 (\\'The Juggler\\') 64bit
    Xmp.video.Duration : 4050176
    Xmp.video.DateUTC : 527154970
    Xmp.video.Title : Астерикс РёР· ГаРРРёРё/AstГ©rix le Gaulois
    Xmp.video.TotalStream : 8
    Xmp.video.TrackLacing : No
    Xmp.video.Codec : V_MPEGH/ISO/HEVC
    Xmp.video.TrackLang : und
    Xmp.video.Width : 1456
    Xmp.video.Height : 1072
    Xmp.video.FrameRate : 23.976
    Xmp.audio.Compressor : A_DTS
    Xmp.audio.DefaultDuration : 10666
    Xmp.audio.TrackLang : fre
    Xmp.video.TrackName : Перевод: ПрофессионаРьный (РјРЅРѕРіРѕРіРѕРосый закадровый) R5
    Xmp.audio.SampleRate : 48000
    Xmp.audio.ChannelType : Stereo
    Xmp.audio.DefaultOn : No
    Xmp.audio.BitsPerSample : 16
    Xmp.video.SubTTrackLacing : No
    Xmp.video.SubTCodec : S_HDMV/PGS
    Xmp.video.SubTLang : rus
    Xmp.video.AttachFileName : cover.png
    Xmp.video.AttachFileMIME : image/png
    Xmp.video.AttachFileUID : 2696031000813624236
    Xmp.video.AspectRatio : 4: 3
    H.265/HEVC (High Efficiency Video Coding) - это новый стандарт кодирования видео.
    *Рипы в фомате HEVC, в настоящее время не поддерживается большинством аппаратных проигрывателей.
    *Для корректного воспроизведения может потребоваться обновление ПО.
    *Стандарт H.265/HEVC является логическим продолжением стандарта H.264/AVC (Advanced Video Coding), и характеризуется более эффективными алгоритмами сжатия, а также поддержкой высокого разрешения вплоть до 8K UHD (8192x4320). Первая версия стандарта H.265 была опубликована в начале 2013 года.
    Любителям решения из коробки - установить последнюю версию на выбор:
    Media Player Classic - Black Edition (MPC-BE)
    VLC media player
    Daum Pot Player
    GOM Media Player
    Любителям WMP и других плееров, использующих по умолчанию для воспроизведения системные кодеки+сплитеры - установить K-Lite Codec Pack версии 10.1.0 и выше.
    Любимые плееры, не использующии по умолчанию для воспроизведения системные кодеки+сплитеры, нужно перенастроить на использование оных.

    Скриншоты для ознакомления



    Все релизы мультфильма Астерикс из Галлии в Клубе
    Производство: Франция, Бельгия/Belvision, Dargaud Films
    Жанр: Рисованная анимация, Приключения, Комедия
    Режиссер: Рене Госинни, Альбер Юдерзо
    Персонажи: Мишлин Дэкс, Жак Балютен, Жак Бодуан, Морис Шевит, Клод Дассе, Пьер Гарин, Оливье Юссно, Бернар Лавалетт

    Описание

    Египетская царица Клеопатра отличалась не только удивительной красотой, но и строптивым нравом. Поэтому она страшно возмутилась, услышав о том, что, оказывается, египтяне навсегда останутся рабами. Они, мол, народ ленивый и глупый. Кому такое понравится? Клеопатра решает утереть нос обнаглевшему императору. Но кто ей поможет? К счастью, в Галлии живет друид Починикс с друзьями Астериксом и Обеликсом... В прошлый раз они уже побеждали отборные римские легионы. Какие веселые приключения ждут их в Египте?

    Возраст: 0+ (для любой зрительской аудитории)
    Релиз от: Goor80
    Продолжительность: 01: 12: 21
    Качество видео: BDRip
    Перевод: Многоголосый закадровый, профессиональный (R5)
    Субтитры: русские
    Видео: HEVC/H.265, 1488x1072, ~8978 Kbps
    Аудио 1: DTS, 2 ch, 1509 Kbps (русский)
    Аудио 2: DTS, 2 ch, 768 Kbps (французский)

    Общее
    Уникальный идентификатор : 181117800253016229662515124355770254829 (0x884204FDBF6AE02A97E01667AA8E85ED)
    Полное имя : E: \Video\Астерикс. Сборник мультфильмов\1968 Астерикс и Клеопатра (Asterix et Cleopatre).mkv
    Формат : Matroska
    Версия формата : Version 4/Version 2
    Размер файла : 5, 70 Гбайт
    Продолжительность : 1 ч. 12 м.
    Общий поток : 11, 3 Мбит/сек
    Название фильма : Астерикс и Клеопатра/Astérix et Cléopâtre
    Дата кодирования : UTC 2017-09-15 06: 45: 59
    Программа кодирования : mkvmerge v13.0.0 (\\'The Juggler\\') 64bit
    Библиотека кодирования : libebml v1.3.4 + libmatroska v1.4.5
    Авторское право : Encoded by Goor80
    Обложка : Yes
    Attachments : cover.png
    Released by : Buba5473 for NNM-Club
    Видео
    Идентификатор : 1
    Формат : HEVC
    Формат/Информация : High Efficiency Video Coding
    Профиль формата : Main 10@L4@Main
    Идентификатор кодека : V_MPEGH/ISO/HEVC
    Продолжительность : 1 ч. 12 м.
    Битрейт : 8978 Кбит/сек
    Ширина : 1488 пикселей
    Высота : 1072 пикселя
    Соотношение сторон : 1, 388
    Режим частоты кадров : Постоянный
    Частота кадров : 23, 976 (24000/1001) кадра/сек
    Цветовое пространство : YUV
    Субдискретизация насыщенности : 4: 2: 0
    Битовая глубина : 10 бит
    Бит/(Пиксели*Кадры) : 0.235
    Размер потока : 4, 54 Гбайт (80%)
    Default : Да
    Forced : Нет
    Аудио #1
    Идентификатор : 2
    Формат : DTS
    Формат/Информация : Digital Theater Systems
    Режим : 16
    Параметр Endianness формата : Big
    Идентификатор кодека : A_DTS
    Продолжительность : 1 ч. 12 м.
    Вид битрейта : Постоянный
    Битрейт : 1509 Кбит/сек
    Каналы : 2 канала
    Расположение каналов : Front: L R
    Частота : 48, 0 КГц
    Частота кадров : 93, 750 кадра/сек (512 spf)
    Битовая глубина : 16 бит
    Метод сжатия : С потерями
    Размер потока : 781 Мбайт (13%)
    Заголовок : Перевод: Профессиональный (многоголосый закадровый) R5
    Язык : Russian
    Default : Да
    Forced : Нет
    Аудио #2
    Идентификатор : 3
    Формат : DTS
    Формат/Информация : Digital Theater Systems
    Режим : 16
    Параметр Endianness формата : Big
    Идентификатор кодека : A_DTS
    Продолжительность : 1 ч. 12 м.
    Вид битрейта : Постоянный
    Битрейт : 768 Кбит/сек
    Каналы : 2 канала
    Расположение каналов : Front: L R
    Частота : 48, 0 КГц
    Частота кадров : 93, 750 кадра/сек (512 spf)
    Битовая глубина : 16 бит
    Метод сжатия : С потерями
    Размер потока : 397 Мбайт (7%)
    Язык : French
    Default : Нет
    Forced : Нет
    Текст
    Идентификатор : 4
    Формат : PGS
    Режим смешивания : zlib
    Идентификатор кодека : S_HDMV/PGS
    Идентификатор кодека/Информация : Picture based subtitle format used on BDs/HD-DVDs
    Продолжительность : 1 ч. 12 м.
    Битрейт : 27, 8 Кбит/сек
    ElementCount : 1401
    Размер потока : 14, 3 Мбайт (0%)
    Язык : Russian
    Default : Да
    Forced : Нет
    Меню
    00: 00: 00.000 : en: Chapter 01
    00: 15: 07.406 : en: Chapter 02
    00: 25: 26.316 : en: Chapter 03
    00: 35: 28.000 : en: Chapter 04
    00: 43: 14.049 : en: Chapter 05
    00: 51: 38.720 : en: Chapter 06
    01: 00: 17.030 : en: Chapter 07
    01: 08: 54.713 : en: Chapter 08
    XMP
    Xmp.video.FileName : E: \Video\Астерикс. Сборник мультфильмов\1968 Астерикс и Клеопатра (Asterix et Cleopatre).mkv
    Xmp.video.FileSize : -9.53674e-007
    Xmp.video.MimeType : video/matroska
    Xmp.video.EBMLVersion : 1
    Xmp.video.EBMLReadVersion : 1
    Xmp.video.DocType : matroska
    Xmp.video.DocTypeVersion : 4
    Xmp.video.DocTypeReadVersion : 2
    Xmp.video.TimecodeScale : 0.001
    Xmp.video.MuxingApp : libebml v1.3.4 + libmatroska v1.4.5
    Xmp.video.WritingApp : mkvmerge v13.0.0 (\\'The Juggler\\') 64bit
    Xmp.video.Duration : 4340753
    Xmp.video.DateUTC : 527150759
    Xmp.video.Title : Астерикс Рё РљРеопатра/AstГ©rix et ClГ©opГўtre
    Xmp.video.TotalStream : 16
    Xmp.video.TrackLacing : No
    Xmp.video.Codec : V_MPEGH/ISO/HEVC
    Xmp.video.TrackLang : und
    Xmp.video.Width : 1488
    Xmp.video.Height : 1072
    Xmp.video.FrameRate : 23.976
    Xmp.audio.Compressor : A_DTS
    Xmp.audio.DefaultDuration : 10666
    Xmp.audio.TrackLang : fre
    Xmp.video.TrackName : Перевод: ПрофессионаРьный (РјРЅРѕРіРѕРіРѕРосый закадровый) R5
    Xmp.audio.SampleRate : 48000
    Xmp.audio.ChannelType : Stereo
    Xmp.audio.BitsPerSample : 16
    Xmp.audio.DefaultOn : No
    Xmp.video.SubTTrackLacing : No
    Xmp.video.SubTCodec : S_HDMV/PGS
    Xmp.video.SubTLang : rus
    Xmp.video.AttachFileName : cover.png
    Xmp.video.AttachFileMIME : image/png
    Xmp.video.AttachFileUID : -5847242512937191806
    Xmp.video.AspectRatio : 4: 3
    H.265/HEVC (High Efficiency Video Coding) - это новый стандарт кодирования видео.
    *Рипы в фомате HEVC, в настоящее время не поддерживается большинством аппаратных проигрывателей.
    *Для корректного воспроизведения может потребоваться обновление ПО.
    *Стандарт H.265/HEVC является логическим продолжением стандарта H.264/AVC (Advanced Video Coding), и характеризуется более эффективными алгоритмами сжатия, а также поддержкой высокого разрешения вплоть до 8K UHD (8192x4320). Первая версия стандарта H.265 была опубликована в начале 2013 года.
    Любителям решения из коробки - установить последнюю версию на выбор:
    Media Player Classic - Black Edition (MPC-BE)
    VLC media player
    Daum Pot Player
    GOM Media Player
    Любителям WMP и других плееров, использующих по умолчанию для воспроизведения системные кодеки+сплитеры - установить K-Lite Codec Pack версии 10.1.0 и выше.
    Любимые плееры, не использующии по умолчанию для воспроизведения системные кодеки+сплитеры, нужно перенастроить на использование оных.

    Скриншоты для ознакомления



    Все релизы мультфильма Астерикс и Клеопатра в Клубе
    Производство: Франция/Dargaud Films, Gaumont International, Les Productions René Goscinny
    Жанр: Рисованная анимация, Приключения, Комедия
    Режиссер: Гаэтан Брицци, Пол Брицци
    Персонажи: Пьер Монди, Serge Sauvion, Roger Lumont, Хосе Люссьони, Мишель Барбе, Paul Mercey, Ив Барсак

    Описание

    Однажды Обеликс влюбился в прекрасную Фальбалу. Приглянулась она ему. Казалось бы, дело к свадьбе. Но гордая Фальбалу не разделила порыв великана друида, положив глаз на красавца Трагикомикса. Обеликс погоревал-погоревал, да и утешился.
    До тех пор, пока злобные римляне не похитили предательским образом двоих влюбленных и не увезли их на край света — в Африку. Естественно, друзья не могли сидеть сложа руки. Недолго думая, Астерикс и Обеликс отправляются в новый поход, как всегда, полный смертельных опасностей и веселых приключений. А римская арена по случаю дня рождения Цезаря уже заполнена народом и все ждут жертвоприношения…

    Возраст: 6+ (зрителям, достигшим 6 лет)
    Релиз от: Goor80
    Продолжительность: 01: 16: 31
    Качество видео: BDRip
    Перевод: Многоголосый закадровый, профессиональный (R5)
    Субтитры: русские
    Видео: HEVC/H.265, 1792x1072, ~8976 Kbps
    Аудио 1: AC3, 2 ch, 192 Kbps (русский)
    Аудио 2: DTS, 2 ch, 768 Kbps (французский)

    Общее
    Уникальный идентификатор : 191377403058384159220184866112989153510 (0x8FF9F276A5D1E17B879E6FB40309C8E6)
    Полное имя : E: \Video\Астерикс. Сборник мультфильмов\1985 Астерикс против Цезаря (Asterix Versus Caesar).mkv
    Формат : Matroska
    Версия формата : Version 4/Version 2
    Размер файла : 5, 31 Гбайт
    Продолжительность : 1 ч. 16 м.
    Общий поток : 9939 Кбит/сек
    Название фильма : Астерикс против Цезаря/Asterix Versus Caesar/Astérix et la surprise de César
    Дата кодирования : UTC 2017-09-15 11: 11: 33
    Программа кодирования : mkvmerge v12.0.0 (\\'Trust/Lust\\') 64bit
    Библиотека кодирования : libebml v1.3.4 + libmatroska v1.4.5
    Авторское право : Encoded by Goor80
    Обложка : Yes
    Attachments : cover.png
    Released by : Buba5473 for NNM-Club
    Видео
    Идентификатор : 1
    Формат : HEVC
    Формат/Информация : High Efficiency Video Coding
    Профиль формата : Main 10@L4@Main
    Идентификатор кодека : V_MPEGH/ISO/HEVC
    Продолжительность : 1 ч. 16 м.
    Битрейт : 8976 Кбит/сек
    Ширина : 1792 пикселя
    Высота : 1072 пикселя
    Соотношение сторон : 5: 3
    Режим частоты кадров : Постоянный
    Частота кадров : 23, 976 (24000/1001) кадра/сек
    Цветовое пространство : YUV
    Субдискретизация насыщенности : 4: 2: 0
    Битовая глубина : 10 бит
    Бит/(Пиксели*Кадры) : 0.195
    Размер потока : 4, 80 Гбайт (90%)
    Default : Да
    Forced : Нет
    Аудио #1
    Идентификатор : 2
    Формат : AC-3
    Формат/Информация : Audio Coding 3
    Параметр Endianness формата : Big
    Идентификатор кодека : A_AC3
    Продолжительность : 1 ч. 16 м.
    Вид битрейта : Постоянный
    Битрейт : 192 Кбит/сек
    Каналы : 2 канала
    Расположение каналов : Front: L R
    Частота : 48, 0 КГц
    Частота кадров : 31, 250 кадров/сек (1536 spf)
    Битовая глубина : 16 бит
    Метод сжатия : С потерями
    Размер потока : 105 Мбайт (2%)
    Заголовок : Перевод: Профессиональный (многоголосый закадровый) R5 Videogram (перевод с английского)
    Язык : Russian
    ServiceKind/String : Complete Main
    Default : Да
    Forced : Нет
    Аудио #2
    Идентификатор : 3
    Формат : DTS
    Формат/Информация : Digital Theater Systems
    Режим : 16
    Параметр Endianness формата : Big
    Идентификатор кодека : A_DTS
    Продолжительность : 1 ч. 16 м.
    Вид битрейта : Постоянный
    Битрейт : 768 Кбит/сек
    Каналы : 2 канала
    Расположение каналов : Front: L R
    Частота : 48, 0 КГц
    Частота кадров : 93, 750 кадра/сек (512 spf)
    Битовая глубина : 16 бит
    Метод сжатия : С потерями
    Размер потока : 420 Мбайт (8%)
    Язык : French
    Default : Нет
    Forced : Нет
    Текст
    Идентификатор : 4
    Формат : UTF-8
    Идентификатор кодека : S_TEXT/UTF8
    Идентификатор кодека/Информация : UTF-8 Plain Text
    Продолжительность : 1 ч. 11 м.
    Битрейт : 87 бит/сек
    ElementCount : 678
    Размер потока : 46, 3 Кбайт (0%)
    Язык : Russian
    Default : Да
    Forced : Нет
    Меню
    00: 00: 00.000 : : Chapter 1
    00: 06: 32.391 : : Chapter 2
    00: 12: 00.302 : : Chapter 3
    00: 18: 35.614 : : Chapter 4
    00: 23: 44.798 : : Chapter 5
    00: 31: 30.930 : : Chapter 6
    00: 37: 36.670 : : Chapter 7
    00: 43: 19.387 : : Chapter 8
    00: 51: 54.068 : : Chapter 9
    00: 57: 39.664 : : Chapter 10
    01: 04: 30.114 : : Chapter 11
    01: 11: 07.136 : : Chapter 12
    XMP
    Xmp.video.FileName : E: \Video\Астерикс. Сборник мультфильмов\1985 Астерикс против Цезаря (Asterix Versus Caesar).mkv
    Xmp.video.FileSize : -9.53674e-007
    Xmp.video.MimeType : video/matroska
    Xmp.video.EBMLVersion : 1
    Xmp.video.EBMLReadVersion : 1
    Xmp.video.DocType : matroska
    Xmp.video.DocTypeVersion : 4
    Xmp.video.DocTypeReadVersion : 2
    Xmp.video.TimecodeScale : 0.001
    Xmp.video.MuxingApp : libebml v1.3.4 + libmatroska v1.4.5
    Xmp.video.WritingApp : mkvmerge v12.0.0 (\\'Trust/Lust\\') 64bit
    Xmp.video.Duration : 4590503
    Xmp.video.DateUTC : 527166693
    Xmp.video.Title : Астерикс против Цезаря/Asterix Versus Caesar/Astérix et la surprise de César
    Xmp.video.TotalStream : 28
    Xmp.video.TrackLacing : No
    Xmp.video.Codec : V_MPEGH/ISO/HEVC
    Xmp.video.FrameRate : 23.976
    Xmp.video.TrackLang : und
    Xmp.video.Width : 1792
    Xmp.video.Height : 1072
    Xmp.audio.Compressor : A_DTS
    Xmp.audio.DefaultDuration : 10666
    Xmp.audio.TrackLang : fre
    Xmp.video.TrackName : Перевод: ПрофессионаРьный (РјРЅРѕРіРѕРіРѕРосый закадровый) R5 Videogram (перевод СЃ ангРРёР№СЃРєРѕРіРѕ)
    Xmp.audio.SampleRate : 48000
    Xmp.audio.ChannelType : Stereo
    Xmp.audio.DefaultOn : No
    Xmp.audio.BitsPerSample : 16
    Xmp.video.SubTTrackLacing : No
    Xmp.video.SubTCodec : S_TEXT/UTF8
    Xmp.video.SubTLang : rus
    Xmp.video.AttachFileName : cover.png
    Xmp.video.AttachFileMIME : image/png
    Xmp.video.AttachFileUID : 250588521711142297
    Xmp.video.AspectRatio : 16: 10
    H.265/HEVC (High Efficiency Video Coding) - это новый стандарт кодирования видео.
    *Рипы в фомате HEVC, в настоящее время не поддерживается большинством аппаратных проигрывателей.
    *Для корректного воспроизведения может потребоваться обновление ПО.
    *Стандарт H.265/HEVC является логическим продолжением стандарта H.264/AVC (Advanced Video Coding), и характеризуется более эффективными алгоритмами сжатия, а также поддержкой высокого разрешения вплоть до 8K UHD (8192x4320). Первая версия стандарта H.265 была опубликована в начале 2013 года.
    Любителям решения из коробки - установить последнюю версию на выбор:
    Media Player Classic - Black Edition (MPC-BE)
    VLC media player
    Daum Pot Player
    GOM Media Player
    Любителям WMP и других плееров, использующих по умолчанию для воспроизведения системные кодеки+сплитеры - установить K-Lite Codec Pack версии 10.1.0 и выше.
    Любимые плееры, не использующии по умолчанию для воспроизведения системные кодеки+сплитеры, нужно перенастроить на использование оных.

    Скриншоты для ознакомления



    Все релизы мультфильма Астерикс против Цезаря в Клубе
    Производство: Франция, Дания/Dargaud Films, Gaumont International, Gutenberghus
    Жанр: Рисованная анимация, Приключения, Комедия
    Режиссер: Пино Ван Ламсвеерде
    Персонажи: Грэхэм Бушнелл, Пьер Монди, Морис Риш, Николя Сильберг, Альбер Ожье, Пол БисцилиаРоже Карель, Жюльен Гиомар, Анри Пуарье, Мари-Анн Шазель, Roger Lumont, Патрик Прежан, Ив Барсак, Жерар Крос

    Описание

    Юлий Цезарь не на шутку разозлился на британцев, которые не только не сдавались римским войскам, но и неоднократно помогали в битвах свободолюбивым галлам. Выход один — война. Тем более что британцы воюют лишь пять дней в неделю, да и то с перерывом для чаепития. Хитрый Цезарь вновь забыл, что где-то поблизости, — всего лишь через пролив, — проживает доблестный Астерикс с друзьями. Только им известен секрет таинственного зелья.…А то, что подходит для галлов, подойдет и для британцев!

    Возраст: 6+ (зрителям, достигшим 6 лет)
    Рейтинг MPAA: этот продукт не был классифицирован
    Релиз от: Goor80
    Продолжительность: 01: 18: 39
    Качество видео: BDRip
    Перевод: Многоголосый закадровый, профессиональный (R5)
    Субтитры: русские, английские
    Видео: HEVC/H.265, 1792x1072, ~8981 Kbps
    Аудио 1: AC3, 2 ch, 192 Kbps (русский)
    Аудио 2: DTS, 2 ch, 768 Kbps (французский)

    Общее
    Уникальный идентификатор : 193470009255829834225000978274447074885 (0x918CF7EA279D41978405F3175E0D2645)
    Полное имя : E: \Video\Астерикс. Сборник мультфильмов\1986 Астерикс в Британии (Asterix in Britain).mkv
    Формат : Matroska
    Версия формата : Version 4/Version 2
    Размер файла : 5, 46 Гбайт
    Продолжительность : 1 ч. 18 м.
    Общий поток : 9944 Кбит/сек
    Название фильма : Астерикс в Британии/Asterix in Britain/Astérix chez les Bretons
    Дата кодирования : UTC 2017-09-11 12: 33: 27
    Программа кодирования : mkvmerge v12.0.0 (\\'Trust/Lust\\') 64bit
    Библиотека кодирования : libebml v1.3.4 + libmatroska v1.4.5
    Авторское право : Encoded by Goor80
    Released by : Buba5473 for NNM-Club
    Видео
    Идентификатор : 1
    Формат : HEVC
    Формат/Информация : High Efficiency Video Coding
    Профиль формата : Main 10@L4@Main
    Идентификатор кодека : V_MPEGH/ISO/HEVC
    Продолжительность : 1 ч. 18 м.
    Битрейт : 8981 Кбит/сек
    Ширина : 1792 пикселя
    Высота : 1072 пикселя
    Соотношение сторон : 5: 3
    Режим частоты кадров : Постоянный
    Частота кадров : 23, 976 (24000/1001) кадра/сек
    Цветовое пространство : YUV
    Субдискретизация насыщенности : 4: 2: 0
    Битовая глубина : 10 бит
    Бит/(Пиксели*Кадры) : 0.195
    Размер потока : 4, 93 Гбайт (90%)
    Default : Да
    Forced : Нет
    Аудио #1
    Идентификатор : 2
    Формат : AC-3
    Формат/Информация : Audio Coding 3
    Параметр Endianness формата : Big
    Идентификатор кодека : A_AC3
    Продолжительность : 1 ч. 18 м.
    Вид битрейта : Постоянный
    Битрейт : 192 Кбит/сек
    Каналы : 2 канала
    Расположение каналов : Front: L R
    Частота : 48, 0 КГц
    Частота кадров : 31, 250 кадров/сек (1536 spf)
    Битовая глубина : 16 бит
    Метод сжатия : С потерями
    Размер потока : 108 Мбайт (2%)
    Заголовок : Перевод: Профессиональный (многоголосый закадровый) R5 Videogram (перевод с немецкого)
    Язык : Russian
    ServiceKind/String : Complete Main
    Default : Да
    Forced : Нет
    Аудио #2
    Идентификатор : 3
    Формат : DTS
    Формат/Информация : Digital Theater Systems
    Режим : 16
    Параметр Endianness формата : Big
    Идентификатор кодека : A_DTS
    Продолжительность : 1 ч. 18 м.
    Вид битрейта : Постоянный
    Битрейт : 768 Кбит/сек
    Каналы : 2 канала
    Расположение каналов : Front: L R
    Частота : 48, 0 КГц
    Частота кадров : 93, 750 кадра/сек (512 spf)
    Битовая глубина : 16 бит
    Метод сжатия : С потерями
    Размер потока : 432 Мбайт (8%)
    Язык : French
    Default : Нет
    Forced : Нет
    Текст #1
    Идентификатор : 4
    Формат : UTF-8
    Идентификатор кодека : S_TEXT/UTF8
    Идентификатор кодека/Информация : UTF-8 Plain Text
    Продолжительность : 1 ч. 13 м.
    Битрейт : 97 бит/сек
    ElementCount : 740
    Размер потока : 52, 8 Кбайт (0%)
    Язык : Russian
    Default : Да
    Forced : Нет
    Текст #2
    Идентификатор : 5
    Формат : UTF-8
    Идентификатор кодека : S_TEXT/UTF8
    Идентификатор кодека/Информация : UTF-8 Plain Text
    Продолжительность : 1 ч. 12 м.
    Битрейт : 54 бит/сек
    ElementCount : 595
    Размер потока : 28, 9 Кбайт (0%)
    Язык : English
    Default : Нет
    Forced : Нет
    Меню
    00: 00: 00.000 : en: Chapter 1
    00: 06: 10.370 : en: Chapter 2
    00: 12: 49.808 : en: Chapter 3
    00: 19: 48.394 : en: Chapter 4
    00: 25: 24.520 : en: Chapter 5
    00: 34: 44.081 : en: Chapter 6
    00: 40: 33.097 : en: Chapter 7
    00: 46: 54.728 : en: Chapter 8
    00: 53: 00.635 : en: Chapter 9
    00: 59: 34.402 : en: Chapter 10
    01: 06: 06.963 : en: Chapter 11
    01: 12: 45.734 : en: Chapter 12
    XMP
    Xmp.video.FileName : E: \Video\Астерикс. Сборник мультфильмов\1986 Астерикс в Британии (Asterix in Britain).mkv
    Xmp.video.FileSize : -9.53674e-007
    Xmp.video.MimeType : video/matroska
    Xmp.video.EBMLVersion : 1
    Xmp.video.EBMLReadVersion : 1
    Xmp.video.DocType : matroska
    Xmp.video.DocTypeVersion : 4
    Xmp.video.DocTypeReadVersion : 2
    Xmp.video.TimecodeScale : 0.001
    Xmp.video.MuxingApp : libebml v1.3.4 + libmatroska v1.4.5
    Xmp.video.WritingApp : mkvmerge v12.0.0 (\\'Trust/Lust\\') 64bit
    Xmp.video.Duration : 4718720
    Xmp.video.DateUTC : 526826007
    Xmp.video.Title : Астерикс в Британии/Asterix in Britain/Astérix chez les Bretons
    Xmp.video.TotalStream : 10
    Xmp.video.TrackLacing : No
    Xmp.video.Codec : V_MPEGH/ISO/HEVC
    Xmp.video.FrameRate : 23.976
    Xmp.video.TrackLang : und
    Xmp.video.Width : 1792
    Xmp.video.Height : 1072
    Xmp.audio.Compressor : A_DTS
    Xmp.audio.DefaultDuration : 10666
    Xmp.audio.TrackLang : fre
    Xmp.video.TrackName : Перевод: ПрофессионаРьный (РјРЅРѕРіРѕРіРѕРосый закадровый) R5 Videogram (перевод СЃ немецкого)
    Xmp.audio.SampleRate : 48000
    Xmp.audio.ChannelType : Stereo
    Xmp.audio.DefaultOn : No
    Xmp.audio.BitsPerSample : 16
    Xmp.video.SubTTrackLacing : No
    Xmp.video.SubTCodec : S_TEXT/UTF8
    Xmp.video.SubTLang : rus
    Xmp.video.SubTDefaultOn : No
    Xmp.video.AspectRatio : 16: 10
    H.265/HEVC (High Efficiency Video Coding) - это новый стандарт кодирования видео.
    *Рипы в фомате HEVC, в настоящее время не поддерживается большинством аппаратных проигрывателей.
    *Для корректного воспроизведения может потребоваться обновление ПО.
    *Стандарт H.265/HEVC является логическим продолжением стандарта H.264/AVC (Advanced Video Coding), и характеризуется более эффективными алгоритмами сжатия, а также поддержкой высокого разрешения вплоть до 8K UHD (8192x4320). Первая версия стандарта H.265 была опубликована в начале 2013 года.
    Любителям решения из коробки - установить последнюю версию на выбор:
    Media Player Classic - Black Edition (MPC-BE)
    VLC media player
    Daum Pot Player
    GOM Media Player
    Любителям WMP и других плееров, использующих по умолчанию для воспроизведения системные кодеки+сплитеры - установить K-Lite Codec Pack версии 10.1.0 и выше.
    Любимые плееры, не использующии по умолчанию для воспроизведения системные кодеки+сплитеры, нужно перенастроить на использование оных.

    Скриншоты для ознакомления



    Все релизы мультфильма Астерикс в Британии в Клубе
    Производство: Франция, Германия/Dargaud Films, Extrafilm, Gaumont International
    Жанр: Рисованная анимация, Приключения, Комедия
    Режиссер: Филипп Гримон
    Персонажи: Роже Карель, Пьер Торнад, Анри Лабюсьер, Жюльен Гиомар, Анри Пуарье, Мари-Анн Шазель, Roger Lumont, Патрик Прежан, Ив Барсак, Жерар Крос

    Описание

    Как известно, настоящему галлу все нипочем. Он и в огне не горит, и в воде не тонет. Но на этот раз даже Астериксу приходится несладко: ведь на его деревню обрушивается ураган невиданной силы. Помочь нашему герою может только друид Починикс, на которого, как назло, только что свалился огромный валун. Бедняга никого не узнает...Обо всем этом становится известно Юлию Цезарю - а уж он спит и видит, кого бы еще завоевать. Впереди большой бой - и наши веселые герои выходят на него с открытым забралом.

    Возраст: 6+ (зрителям, достигшим 6 лет)
    Релиз от: Goor80
    Продолжительность: 01: 19: 58
    Качество видео: BDRip
    Перевод: Многоголосый закадровый, профессиональный x2 (R5)
    Субтитры: русские
    Видео: HEVC/H.265, 1920x1040, ~8995 Kbps
    Аудио 1: AC3, 2 ch, 192 Kbps (русский)
    Аудио 2: DTS, 2 ch, 1509 Kbps (русский)
    Аудио 3: DTS, 2 ch, 1509 Kbps (французский)

    бщее
    Уникальный идентификатор : 178749734995744072475630328521832603750 (0x8679F25C1BAEF3189D5F59CCC72D2066)
    Полное имя : E: \Video\Астерикс. Сборник мультфильмов\1989 Большой бой Астерикса (Asterix and the Big Fight).mkv
    Формат : Matroska
    Версия формата : Version 4/Version 2
    Размер файла : 6, 82 Гбайт
    Продолжительность : 1 ч. 19 м.
    Общий поток : 12, 2 Мбит/сек
    Название фильма : Большой бой Астерикса/Astérix et le coup du menhir/Asterix and the Big Fight
    Дата кодирования : UTC 2017-09-15 11: 13: 33
    Программа кодирования : mkvmerge v12.0.0 (\\'Trust/Lust\\') 64bit
    Библиотека кодирования : libebml v1.3.4 + libmatroska v1.4.5
    Авторское право : Encoded by Goor80
    Released by : Buba5473 for NNM-Club
    Видео
    Идентификатор : 1
    Формат : HEVC
    Формат/Информация : High Efficiency Video Coding
    Профиль формата : Main 10@L4@Main
    Идентификатор кодека : V_MPEGH/ISO/HEVC
    Продолжительность : 1 ч. 19 м.
    Битрейт : 8995 Кбит/сек
    Ширина : 1920 пикселей
    Высота : 1040 пикселей
    Соотношение сторон : 1, 85: 1
    Режим частоты кадров : Постоянный
    Частота кадров : 23, 976 (24000/1001) кадра/сек
    Цветовое пространство : YUV
    Субдискретизация насыщенности : 4: 2: 0
    Битовая глубина : 10 бит
    Бит/(Пиксели*Кадры) : 0.188
    Размер потока : 5, 02 Гбайт (74%)
    Default : Да
    Forced : Нет
    Аудио #1
    Идентификатор : 2
    Формат : AC-3
    Формат/Информация : Audio Coding 3
    Параметр Endianness формата : Big
    Идентификатор кодека : A_AC3
    Продолжительность : 1 ч. 19 м.
    Вид битрейта : Постоянный
    Битрейт : 192 Кбит/сек
    Каналы : 2 канала
    Расположение каналов : Front: L R
    Частота : 48, 0 КГц
    Частота кадров : 31, 250 кадров/сек (1536 spf)
    Битовая глубина : 16 бит
    Метод сжатия : С потерями
    Размер потока : 110 Мбайт (2%)
    Заголовок : Перевод: Профессиональный (многоголосый закадровый) R5 Videogram (перевод с немецкого)
    Язык : Russian
    ServiceKind/String : Complete Main
    Default : Да
    Forced : Нет
    Аудио #2
    Идентификатор : 3
    Формат : DTS
    Формат/Информация : Digital Theater Systems
    Режим : 16
    Параметр Endianness формата : Big
    Идентификатор кодека : A_DTS
    Продолжительность : 1 ч. 19 м.
    Вид битрейта : Постоянный
    Битрейт : 1509 Кбит/сек
    Каналы : 2 канала
    Расположение каналов : Front: L R
    Частота : 48, 0 КГц
    Частота кадров : 93, 750 кадра/сек (512 spf)
    Битовая глубина : 16 бит
    Метод сжатия : С потерями
    Размер потока : 863 Мбайт (12%)
    Заголовок : Перевод: Многоголосый закадровый stereo - наложен на французский (дорожка by Volshebnik)
    Язык : Russian
    Default : Нет
    Forced : Нет
    Аудио #3
    Идентификатор : 4
    Формат : DTS
    Формат/Информация : Digital Theater Systems
    Режим : 16
    Параметр Endianness формата : Big
    Идентификатор кодека : A_DTS
    Продолжительность : 1 ч. 19 м.
    Вид битрейта : Постоянный
    Битрейт : 1509 Кбит/сек
    Каналы : 2 канала
    Расположение каналов : Front: L R
    Частота : 48, 0 КГц
    Частота кадров : 93, 750 кадра/сек (512 spf)
    Битовая глубина : 16 бит
    Метод сжатия : С потерями
    Размер потока : 863 Мбайт (12%)
    Язык : French
    Default : Нет
    Forced : Нет
    Текст
    Идентификатор : 5
    Формат : UTF-8
    Идентификатор кодека : S_TEXT/UTF8
    Идентификатор кодека/Информация : UTF-8 Plain Text
    Продолжительность : 1 ч. 14 м.
    Битрейт : 65 бит/сек
    ElementCount : 536
    Размер потока : 36, 0 Кбайт (0%)
    Язык : Russian
    Default : Да
    Forced : Нет
    Меню
    00: 00: 00.000 : : Chapter 1
    00: 01: 11.488 : : Chapter 2
    00: 05: 15.690 : : Chapter 3
    00: 10: 34.508 : : Chapter 4
    00: 13: 42.154 : : Chapter 5
    00: 16: 44.003 : : Chapter 6
    00: 19: 46.059 : : Chapter 7
    00: 23: 14.476 : : Chapter 8
    00: 26: 33.383 : : Chapter 9
    00: 27: 55.632 : : Chapter 10
    00: 30: 01.674 : : Chapter 11
    00: 32: 51.010 : : Chapter 12
    00: 34: 44.123 : : Chapter 13
    00: 43: 50.919 : : Chapter 14
    00: 45: 55.169 : : Chapter 15
    00: 50: 00.664 : : Chapter 16
    00: 55: 16.354 : : Chapter 17
    00: 57: 26.359 : : Chapter 18
    01: 00: 14.652 : : Chapter 19
    01: 03: 29.347 : : Chapter 20
    01: 12: 13.120 : : Chapter 21
    01: 15: 49.836 : : Chapter 22
    01: 19: 58.251 : : Chapter 23
    XMP
    Xmp.video.FileName : E: \Video\Астерикс. Сборник мультфильмов\1989 Большой бой Астерикса (Asterix and the Big Fight).mkv
    Xmp.video.FileSize : -9.53674e-007
    Xmp.video.MimeType : video/matroska
    Xmp.video.EBMLVersion : 1
    Xmp.video.EBMLReadVersion : 1
    Xmp.video.DocType : matroska
    Xmp.video.DocTypeVersion : 4
    Xmp.video.DocTypeReadVersion : 2
    Xmp.video.TimecodeScale : 0.001
    Xmp.video.MuxingApp : libebml v1.3.4 + libmatroska v1.4.5
    Xmp.video.WritingApp : mkvmerge v12.0.0 (\\'Trust/Lust\\') 64bit
    Xmp.video.Duration : 4798304
    Xmp.video.DateUTC : 527166813
    Xmp.video.Title : БоРьшой Р±РѕР№ Астерикса/AstГ©rix et le coup du menhir/Asterix and the Big Fight
    Xmp.video.TotalStream : 20
    Xmp.video.TrackLacing : No
    Xmp.video.Codec : V_MPEGH/ISO/HEVC
    Xmp.video.FrameRate : 23.976
    Xmp.video.TrackLang : und
    Xmp.video.Width : 1920
    Xmp.video.Height : 1040
    Xmp.audio.Compressor : A_DTS
    Xmp.audio.DefaultDuration : 10666
    Xmp.audio.TrackLang : fre
    Xmp.video.TrackName : Перевод: РњРЅРѕРіРѕРіРѕРосый закадровый stereo - РЅР°Рожен РЅР° французский (дорожка by Volshebnik)
    Xmp.audio.SampleRate : 48000
    Xmp.audio.ChannelType : Stereo
    Xmp.audio.DefaultOn : No
    Xmp.audio.BitsPerSample : 16
    Xmp.video.SubTTrackLacing : No
    Xmp.video.SubTCodec : S_TEXT/UTF8
    Xmp.video.SubTLang : rus
    Xmp.video.AspectRatio : 1.8
    H.265/HEVC (High Efficiency Video Coding) - это новый стандарт кодирования видео.
    *Рипы в фомате HEVC, в настоящее время не поддерживается большинством аппаратных проигрывателей.
    *Для корректного воспроизведения может потребоваться обновление ПО.
    *Стандарт H.265/HEVC является логическим продолжением стандарта H.264/AVC (Advanced Video Coding), и характеризуется более эффективными алгоритмами сжатия, а также поддержкой высокого разрешения вплоть до 8K UHD (8192x4320). Первая версия стандарта H.265 была опубликована в начале 2013 года.
    Любителям решения из коробки - установить последнюю версию на выбор:
    Media Player Classic - Black Edition (MPC-BE)
    VLC media player
    Daum Pot Player
    GOM Media Player
    Любителям WMP и других плееров, использующих по умолчанию для воспроизведения системные кодеки+сплитеры - установить K-Lite Codec Pack версии 10.1.0 и выше.
    Любимые плееры, не использующии по умолчанию для воспроизведения системные кодеки+сплитеры, нужно перенастроить на использование оных.

    Скриншоты для ознакомления



    Все релизы мультфильма Большой бой Астерикса в Клубе
    Производство: Германия, Франция, Испания/Extrafilm, Hahn Film AG, Milímetros S.A.
    Жанр: Рисованная анимация, Приключения, Комедия
    Режиссер: Герхард Хан
    Персонажи: Франсуа Ше, Мишель Тюго-Дори, Жан Дортрэмэ, Робер Парти, Жан-Люк Гальмиш, Оливье Янкович, Натали Спитцер

    Описание

    Вчера будет завтра позавчера — так говаривали мудрецы-друиды в далекие-далекие времена, когда люди считали, что Земля больше всего похожа на пиццу. Тогда был еще жив Юлий Цезарь, которому и пришла в голову мысль, как римлянам победить свободолюбивых друидов, проживавших в маленькой галльской деревушке.
    По приказу императора центурион Люций похитил друида Починикса и отправил его вместе с псом Догматиксом на край света. Но за ними следом увязалась славная парочка Астерикс и Обеликс…

    Возраст: 6+ (зрителям, достигшим 6 лет)
    Релиз от: Goor80
    Продолжительность: 01: 24: 45
    Качество видео: BDRip
    Перевод: Многоголосый закадровый, профессиональный (R5)
    Субтитры: русские
    Видео: HEVC/H.265, 1920x1040, ~8845 Kbps
    Аудио 1: DTS, 6 ch, 1509 Kbps (русский)
    Аудио 2: DTS, 6 ch, 1509 Kbps (французский)

    Общее
    Уникальный идентификатор : 184108197019866285362703818804038619342 (0x8A81F2EF5AEE7F8A80FFD827CE7E50CE)
    Полное имя : E: \Video\Астерикс. Сборник мультфильмов\1994 Астерикс завоевывает Америку (Asterix Conquers America).mkv
    Формат : Matroska
    Версия формата : Version 4/Version 2
    Размер файла : 6, 59 Гбайт
    Продолжительность : 1 ч. 24 м.
    Общий поток : 11, 1 Мбит/сек
    Название фильма : Астерикс завоевывает Америку/Asterix Conquers America/Astérix et les indiens
    Дата кодирования : UTC 2017-09-15 11: 15: 59
    Программа кодирования : mkvmerge v12.0.0 (\\'Trust/Lust\\') 64bit
    Библиотека кодирования : libebml v1.3.4 + libmatroska v1.4.5
    Авторское право : Encoded by Goor80
    Обложка : Yes
    Attachments : cover.jpg
    Released by : Buba5473 for NNM-Club
    Видео
    Идентификатор : 1
    Формат : HEVC
    Формат/Информация : High Efficiency Video Coding
    Профиль формата : Main 10@L4@Main
    Идентификатор кодека : V_MPEGH/ISO/HEVC
    Продолжительность : 1 ч. 24 м.
    Битрейт : 8845 Кбит/сек
    Ширина : 1920 пикселей
    Высота : 1040 пикселей
    Соотношение сторон : 1, 85: 1
    Режим частоты кадров : Постоянный
    Частота кадров : 23, 976 (24000/1001) кадра/сек
    Цветовое пространство : YUV
    Субдискретизация насыщенности : 4: 2: 0
    Битовая глубина : 10 бит
    Бит/(Пиксели*Кадры) : 0.185
    Размер потока : 5, 24 Гбайт (79%)
    Default : Да
    Forced : Нет
    Аудио #1
    Идентификатор : 2
    Формат : DTS
    Формат/Информация : Digital Theater Systems
    Режим : 16
    Параметр Endianness формата : Big
    Идентификатор кодека : A_DTS
    Продолжительность : 1 ч. 24 м.
    Вид битрейта : Постоянный
    Битрейт : 1509 Кбит/сек
    Каналы : 6 каналов
    Расположение каналов : Front: L C R, Side: L R, LFE
    Частота : 48, 0 КГц
    Частота кадров : 93, 750 кадра/сек (512 spf)
    Битовая глубина : 24 бит
    Метод сжатия : С потерями
    Размер потока : 915 Мбайт (14%)
    Заголовок : Перевод: Профессиональный (многоголосый закадровый) R5 Videogram (перевод с английского)
    Язык : Russian
    Default : Да
    Forced : Нет
    Аудио #2
    Идентификатор : 3
    Формат : DTS
    Формат/Информация : Digital Theater Systems
    Режим : 16
    Параметр Endianness формата : Big
    Идентификатор кодека : A_DTS
    Продолжительность : 1 ч. 24 м.
    Вид битрейта : Постоянный
    Битрейт : 768 Кбит/сек
    Каналы : 6 каналов
    Расположение каналов : Front: L C R, Side: L R, LFE
    Частота : 48, 0 КГц
    Частота кадров : 93, 750 кадра/сек (512 spf)
    Битовая глубина : 24 бит
    Метод сжатия : С потерями
    Размер потока : 466 Мбайт (7%)
    Язык : French
    Default : Нет
    Forced : Нет
    Текст
    Идентификатор : 4
    Формат : PGS
    Режим смешивания : zlib
    Идентификатор кодека : S_HDMV/PGS
    Идентификатор кодека/Информация : Picture based subtitle format used on BDs/HD-DVDs
    Продолжительность : 1 ч. 16 м.
    Битрейт : 6057 бит/сек
    ElementCount : 1556
    Размер потока : 3, 32 Мбайт (0%)
    Язык : Russian
    Default : Да
    Forced : Нет
    Меню
    00: 00: 00.000 : en: Chapter 01
    00: 05: 23.531 : en: Chapter 02
    00: 10: 09.817 : en: Chapter 03
    00: 14: 38.794 : en: Chapter 04
    00: 18: 18.722 : en: Chapter 05
    00: 24: 59.915 : en: Chapter 06
    00: 27: 51.711 : en: Chapter 07
    00: 31: 30.179 : en: Chapter 08
    00: 34: 48.044 : en: Chapter 09
    00: 38: 31.309 : en: Chapter 10
    00: 43: 16.719 : en: Chapter 11
    00: 49: 48.360 : en: Chapter 12
    00: 52: 42.993 : en: Chapter 13
    00: 54: 42.821 : en: Chapter 14
    00: 59: 57.427 : en: Chapter 15
    01: 04: 59.478 : en: Chapter 16
    01: 08: 56.382 : en: Chapter 17
    01: 11: 20.818 : en: Chapter 18
    01: 16: 26.915 : en: Chapter 19
    01: 17: 38.153 : en: Chapter 20
    XMP
    Xmp.video.FileName : E: \Video\Астерикс. Сборник мультфильмов\1994 Астерикс завоевывает Америку (Asterix Conquers America).mkv
    Xmp.video.FileSize : -9.53674e-007
    Xmp.video.MimeType : video/matroska
    Xmp.video.EBMLVersion : 1
    Xmp.video.EBMLReadVersion : 1
    Xmp.video.DocType : matroska
    Xmp.video.DocTypeVersion : 4
    Xmp.video.DocTypeReadVersion : 2
    Xmp.video.TimecodeScale : 0.001
    Xmp.video.MuxingApp : libebml v1.3.4 + libmatroska v1.4.5
    Xmp.video.WritingApp : mkvmerge v12.0.0 (\\'Trust/Lust\\') 64bit
    Xmp.video.Duration : 5085152
    Xmp.video.DateUTC : 527166959
    Xmp.video.Title : Астерикс завоевывает Америку/Asterix Conquers America/Astérix et les indiens
    Xmp.video.TotalStream : 32
    Xmp.video.TrackLacing : No
    Xmp.video.Codec : V_MPEGH/ISO/HEVC
    Xmp.video.FrameRate : 23.976
    Xmp.video.TrackLang : und
    Xmp.video.Width : 1920
    Xmp.video.Height : 1040
    Xmp.audio.Compressor : A_DTS
    Xmp.audio.DefaultDuration : 10666
    Xmp.audio.TrackLang : fre
    Xmp.video.TrackName : Перевод: ПрофессионаРьный (РјРЅРѕРіРѕРіРѕРосый закадровый) R5 Videogram (перевод СЃ ангРРёР№СЃРєРѕРіРѕ)
    Xmp.audio.SampleRate : 48000
    Xmp.audio.BitsPerSample : 24
    Xmp.audio.DefaultOn : No
    Xmp.video.SubTTrackLacing : No
    Xmp.video.SubTCodec : S_HDMV/PGS
    Xmp.video.SubTLang : rus
    Xmp.video.AttachFileName : cover.jpg
    Xmp.video.AttachFileMIME : image/jpeg
    Xmp.video.AttachFileUID : 7474801190965822633
    Xmp.video.AspectRatio : 1.8
    H.265/HEVC (High Efficiency Video Coding) - это новый стандарт кодирования видео.
    *Рипы в фомате HEVC, в настоящее время не поддерживается большинством аппаратных проигрывателей.
    *Для корректного воспроизведения может потребоваться обновление ПО.
    *Стандарт H.265/HEVC является логическим продолжением стандарта H.264/AVC (Advanced Video Coding), и характеризуется более эффективными алгоритмами сжатия, а также поддержкой высокого разрешения вплоть до 8K UHD (8192x4320). Первая версия стандарта H.265 была опубликована в начале 2013 года.
    Любителям решения из коробки - установить последнюю версию на выбор:
    Media Player Classic - Black Edition (MPC-BE)
    VLC media player
    Daum Pot Player
    GOM Media Player
    Любителям WMP и других плееров, использующих по умолчанию для воспроизведения системные кодеки+сплитеры - установить K-Lite Codec Pack версии 10.1.0 и выше.
    Любимые плееры, не использующии по умолчанию для воспроизведения системные кодеки+сплитеры, нужно перенастроить на использование оных.

    Скриншоты для ознакомления



    Все релизы мультфильма Астерикс завоевывает Америку в Клубе
    Производство: Франция, Дания/2d3D Animations, A. Film, M6, M6 Films, Mandarin SAS, TPS Star
    Жанр: Рисованная анимация, Приключения, Комедия
    Режиссер: Стефан Фьелдмарк, Джеспер Мюллер
    Персонажи: Лоран Дойч, Сара Форестье, Жак Франц, Пьер Пальмад, Пьер Черния, Бернар Алан, Марк Альфос, Жуль Азем, Патрик Борг

    Описание

    Астерикс и его друг Обеликс впервые в своей жизни должны встретиться с викингами. Бесстрашные воины из северной страны выкрали племянника вождя галлов, юного Задиру. Миссия чрезвычайно опасна, так как викинги слывут отчаянными и безжалостными воинами…

    Возраст: 6+ (зрителям, достигшим 6 лет)
    Релиз от: Goor80
    Продолжительность: 01: 18: 13
    Качество видео: BDRip
    Перевод: Дублированный
    Субтитры: отсутствуют
    Видео: HEVC/H.265, 1920x1040, ~8959 Kbps
    загрузка...
    Рейтинг →
     (голосов: 1, оценка 5/5, голосовать можно 1 раз )

    Другие торренты по теме:

  • Астерикс: Земля Богов / Asterix Le domaine des dieux (2014) TS скачать через торрент бесплатно
  • Астерикс: Земля Богов / Asterix Le domaine des dieux (2014) WEB-DL [720p] скачать через торрент бесплатно
  • Астерикс: Земля Богов / Asterix Le domaine des dieux (2014) WEB-DL [H.264 / 1080p-LQ] скачать через торрент бесплатно
  • Астерикс: Земля Богов / Asterix Le domaine des dieux (2014) WEB-DLRip скачать через торрент бесплатно
  • Астерикс: Земля Богов / Astérix: Le domaine des dieux (2014) WEB-DL [720p] ATV скачать через торрент бесплатно
  • Астерикс: Земля Богов / Asterix Le domaine des dieux (2014) HDRip
  • Астерикс: Земля Богов / Asterix Le domaine des dieux (2014) Blu-ray 3D [1080p] [3D / 2D]
  • Астерикс: Земля Богов / Asterix Le domaine des dieux (2014) BDRip [1080p] 3D [Вертикальная анаморфная стереопара]


    • Комментарии (0):

      Информация

      Информация

        Посетители, находящиеся в группе Гости, не могут оставлять комментарии в данной новости.

        ↓ Меню




        ↓ Опрос

        Вы добавили сайт в закладки?
        Да
        Нет


        Top 10 за месяц (Мультфильмы)