.
Авторизация | Регистрация
Хочешь лучшие торренты? Добавь свой email!
Добавить

Торрент скачать бесплатно

» » My Little Pony в кино / My Little Pony: The Movie (2017) WEB-DL [H.265 / 1080p-LQ] [EN] торрент скачать бесплатно




    My Little Pony в кино / My Little Pony: The Movie (2017) WEB-DL [H.265 / 1080p-LQ] [EN] торрент скачать бесплатно

    Опубликовал: Админ | Дата: 5-10-2017, 05:00 | Просмотров: 2

    Производство: Канада, США, Lionsgate, Allspark Pictures, DHX Media
    Жанр: Компьютерная анимация, Приключения, Музыкальный, Фентези
    Режиссер: Джейсон Тиссен

    Описание

    Король Шторм хочет лишить пони магии и захватывает Кантерлот. Под угрозой будущее всей Эквестрии! Чтобы остановить злодея, пони покидают родные края и отправляются в путешествие, полное чудес и опасностей. Им предстоит покорить волшебные горы, погрузиться в подводные миры и даже оказаться на летучем пиратском корабле!

    Возраст: 6+ (зрителям, достигшим 6 лет)
    Рейтинг MPAA: PG (рекомендуется присутствие родителей)
    Дата мировой премьеры: 6 октября
    Дата российской премьеры: 12 октября
    Продолжительность: 01: 39: 23
    Качество видео: WEB-DL
    Перевод: Отсутствует
    Язык: Английский
    Субтитры: отсутствуют
    Видео: HEVC/H.265, 1920x1080, ~4002 kbps
    Аудио: AC3, 6 ch, 384 kbps

    Общее
    Полное имя : C: UsersHomeMy Little Pony The MovieMLP The Movie.mp4
    Формат : MPEG-4
    Профиль формата : Base Media
    Идентификатор кодека : isom (isom/iso2/mp41)
    Размер файла : 3, 05 Гбайт
    Продолжительность : 1 ч. 39 м.
    Общий поток : 4391 Кбит/сек
    Программа кодирования : Lavf57.71.100
    Видео
    Идентификатор : 1
    Формат : HEVC
    Формат/Информация : High Efficiency Video Coding
    Профиль формата : @L4@Main
    Идентификатор кодека : hev1
    Идентификатор кодека/Информация : High Efficiency Video Coding
    Продолжительность : 1 ч. 39 м.
    Битрейт : 4002 Кбит/сек
    Ширина : 1920 пикселей
    Высота : 1080 пикселей
    Соотношение сторон : 16: 9
    Режим частоты кадров : Постоянный
    Частота кадров : 24, 000 кадра/сек
    Цветовое пространство : YUV
    Субдискретизация насыщенности : 4: 2: 2
    Битовая глубина : 10 бит
    Тип развёртки : Прогрессивная
    Бит/(Пиксели*Кадры) : 0.080
    Размер потока : 2, 78 Гбайт (91%)
    Библиотека кодирования : x265 2.5+20-0967d0add97e: LinuxGCC 7.2.064 bit 10bit
    Настройки программы : cpuid=1050111/frame-threads=3/wpp/no-pmode/no-pme/no-psnr/no-ssim/log-level=2/input-csp=2/input-res=1920x1080/interlace=0/total-frames=0/level-idc=0/high-tier=1/uhd-bd=0/ref=4/no-allow-non-conformance/no-repeat-t_heads/annexb/no-aud/no-hrd/info/hash=0/no-temporal-layers/open-gop/min-keyint=24/keyint=250/bframes=4/b-adapt=2/b-pyramid/bframe-bias=0/rc-lookahead=25/lookahead-slices=4/scenecut=40/no-intra-refresh/ctu=64/min-cu-size=8/rect/no-amp/max-tu-size=32/tu-inter-depth=1/tu-intra-depth=1/limit-tu=0/rdoq-level=2/dynamic-rd=0.00/no-ssim-rd/signhide/no-tskip/nr-intra=0/nr-inter=0/no-constrained-intra/strong-intra-smoothing/max-merge=3/limit-refs=3/limit-modes/me=3/subme=3/merange=57/temporal-mvp/weightp/no-weightb/no-analyze-src-pics/deblock=0: 0/sao/no-sao-non-deblock/rd=4/no-early-skip/rskip/no-fast-intra/no-tskip-fast/no-cu-lossless/no-b-intra/no-splitrd-skip/rdpenalty=0/psy-rd=2.00/psy-rdoq=1.00/no-rd-refine/analysis-reuse-mode=0/no-lossless/cbqpoffs=0/crqpoffs=0/rc=abr/bitrate=4000/qcomp=0.60/qpstep=4/stats-write=0/stats-read=2/cplxblur=20.0/qblur=0.5/ipratio=1.40/pbratio=1.30/aq-mode=1/aq-strength=1.00/cutree/zone-count=0/no-strict-cbr/qg-size=32/no-rc-grain/qpmax=69/qpmin=0/no-const-vbv/sar=1/overscan=0/videoformat=5/range=0/colorprim=2/transfer=2/colormatrix=2/chromaloc=0/display-window=0/max-cll=0, 0/min-luma=0/max-luma=1023/log2-max-poc-lsb=8/vui-timing-info/vui-hrd-info/slices=1/opt-qp-pps/opt-ref-list-length-pps/no-multi-pass-opt-rps/scenecut-bias=0.05/no-opt-cu-delta-qp/no-aq-motion/no-hdr/no-hdr-opt/no-dhdr10-opt/analysis-reuse-level=5/scale-factor=0/refine-intra=0/refine-inter=0/refine-mv=0/no-limit-sao/ctu-info=0
    Аудио
    Идентификатор : 2
    Формат : AC-3
    Формат/Информация : Audio Coding 3
    Параметр Endianness формата : Big
    Идентификатор кодека : ac-3
    Продолжительность : 1 ч. 39 м.
    Вид битрейта : Постоянный
    Битрейт : 384 Кбит/сек
    Каналы : 6 каналов
    Расположение каналов : Front: L C R, Side: L R, LFE
    Частота : 48, 0 КГц
    Частота кадров : 31, 250 кадров/сек (1536 spf)
    Битовая глубина : 16 бит
    Метод сжатия : С потерями
    Размер потока : 273 Мбайт (9%)
    ServiceKind/String : Complete Main
    Default : Да
    AlternateGroup/String : 1

    Скриншоты для ознакомления



    Все одноименные релизы в Клубе
    Время раздачи: с 12: 00 до 23: 00 (до появления первых 3-5 скачавших)

    Онлайн видео My Little Pony в кино



    My Little Pony в кино/My Little Pony: The Movie (2017) WEB-DL [H.265/1080p-LQ] [EN]
    загрузка...
    Рейтинг →
     (голосов: 1, оценка 3/5, голосовать можно 1 раз )

    Другие торренты по теме:

  • My Little Pony в кино (Мой маленький пони) / My Little Pony: The Movie (2017) WEB-DLRip [Line] [AD]
  • My Little Pony в кино (Мой маленький пони) / My Little Pony: The Movie (2017) WEB-DLRip [H.264 / 1080p-LQ] [Line] [AD]
  • Мой маленький пони: Девочки из Эквестрии Радужный рок / My Little Pony: Equestria Girls Rainbow Rocks (2014) WEB-DLRip скачать через торрент бесплатно
  • Мой маленький пони. Дружба - это чудо / My Little Pony: Friendship Is Magic (2011) WEB-DL [H.264] (сезон 2 серии 01-26 из 26) скачать через торрент бесплатно
  • Мой Маленький Пони: Дружба - это Чудо / My Little Pony: Friendship Is Magic (2015) WEB-DL [H.264 / 1080p] (Сезон 5, серии 1-9 из 26) скачать через торрент бесплатно
  • Мой маленький пони: Девочки из Эквестрии – Игры дружбы / My Little Pony: Equestria Girls - Friendship Games (2015) BDRip скачать через торрент бесплатно
  • Мой Маленький Пони: Дружба - это Чудо / My Little Pony: Friendship Is Magic (2015) WEB-DL [1080p] (сезон 5, эпизоды 01-24 из 26) [En / En, Ru Sub] скачать через торрент бесплатно
  • Мой Маленький Пони: Дружба - это Чудо / My Little Pony: Friendship Is Magic (2016) WEB-DL [H.264 / 1080p-LQ] (сезон 6, эпизоды 01-26 из 26) [EN / RU,EN Sub]


    • Комментарии (0):

      Информация

      Информация

        Посетители, находящиеся в группе Гости, не могут оставлять комментарии в данной новости.

        ↓ Меню




        ↓ Опрос

        Вы добавили сайт в закладки?
        Да
        Нет


        Top 10 за месяц (Мультфильмы)

        Деревяшки (2017) WEB-DLRip [H.264 / 720p-LQ] (серии 1-5 из 26) [Обновляемая]

        (скачиваний: 82)
        Кротик и Панда / Krtek a panda (2017) WEB-DLRip [H.264 / 720p-LQ] (сезон 1, серии 1-18 из 52) [Обновляемая]

        (скачиваний: 14)
        Королевская академия / Regal Academy (2016) SATRip [H.264] (Сезон 1, 26 серий из 26) [UKR]

        (скачиваний: 11)
        Четверо в Кубе (2017) WEB-DLRip [H.264 / 720p-LQ] (серия 1 из 26) [Обновляемая]

        (скачиваний: 9)
        Филипп Алексеев | Самоучитель русского языка в схемах и таблицах (2017) [PDF]

        (скачиваний: 7)
        Наринэ Абгарян | Всё о Манюне [трилогия] (2015) [FB2] скачать через торрент бесплатно

        (скачиваний: 7)
        Сказ о Петре и Февронии (2017) CamRip [AD]

        (скачиваний: 6)
        Огги и тараканы / Oggy et les cafards (2012) TVRip [H.264] (Сезон 4, Серии 74 из 74)

        (скачиваний: 6)
        Хантик - Искатели Секретов / Huntik: Secrets & Seekers (2009) DVB (сезон 1: серия 1-26 из 26) DUB скачать через торрент бесплатно

        (скачиваний: 5)
        Эльмира Давыдова | Характер ребенка – приговор Книга о том, как помочь ребенку выбрать профессию (2017) [PDF]

        (скачиваний: 5)