.
Авторизация | Регистрация
Хочешь лучшие торренты? Добавь свой email!
Добавить

Торрент скачать бесплатно

» » Гриффины / Family Guy (2017) WEBRip [H.264 / 1080p-LQ] (сезон 16, серии 1 из 20) [MVO] (обновляемая) [AD] торрент скачать бесплатно




    Гриффины / Family Guy (2017) WEBRip [H.264 / 1080p-LQ] (сезон 16, серии 1 из 20) [MVO] (обновляемая) [AD] торрент скачать бесплатно

    Опубликовал: Админ | Дата: 5-10-2017, 05:00 | Просмотров: 0

    Производство: США/FOX, Fuzzy Door Productions
    Жанр: мультсериал, комедия, сатира, чёрный юмор
    Режиссер: Сет МакФарлейн
    Роли озвучивали: Сет МакФарлейн, Алекс Борштейн, Сет Грин, Мила Кунис, Майк Генри и другие.

    Описание

    Гриффины (Family Guy) - анимационное ТВ-Шоу, созданное Сетом МакФерлайном (Seth MacFarlane) для телеканала FOX. Как нетрудно догадаться, главными героями шоу является семейка Гриффинов: тупой, но полный сумашедших идей, составляющих львиную долю шуток сериала, отец семейства Питер; его любящя и терпеливая жена Лойс, всеми силами пытающаяся превратить Гриффинов в нормальную семью; их интеллектуально развитый не по годам, вынашивающий идею мирового господства младший сын Стьюи; дочь-ботаник, обречённая из-за этого на одиночество и непонимание как в школе так и дома, Мэг; и 13-ти летний отсталый в развитии лет на 10 сын Крис. Также полноценным членом семьи является пёс Брайн - склонный к меланхолии эстет, спокойно наблюдающий с бокалом вина в лапе над приключениями Питера и остальных членов семьи (и это при всём притом, что остальные собаки в сериале не являются очеловеченными).

    Продолжительность: ~00: 22: 00 серия
    Качество видео: WEBRip
    Перевод: Многоголосый закадровый, профессиональный | OMSKBIRD
    Субтитры: Нет
    Реклама: присутствуют аудио вставки рекламы
    Видео: AVC/H.264, 1920х1080, ~3108 kbps
    Аудио # 1: AC-3, 2 ch, 192 kbps, CBR - русский, многоголосый закадровый
    Аудио # 2: AC-3, 2 ch, 192 kbps, CBR - английский
    01. Emmy-Winning Episode
    02.
    03.
    04.
    05.
    06.
    07.
    08.
    09.
    10.
    11.
    12.
    13.
    14.
    15.
    16.
    17.
    18.
    19.
    20.

    General
    Unique ID : 191851901578637804832955619545896468352 (0x9055550BF690CBEC8506B1A7D6143F80)
    Complete name : H: Мои ДокументыВидеоРАЗДАЧИГриффиныFamily Guy S16 WEBRip 1080p (OMSKBIRD)Family Guy S16E01 WEBRip 1080p (OMSKBIRD).mkv
    Format : Matroska
    Format version : Version 2
    File size : 551 MiB
    Duration : 21 min 36 s
    Overall bit rate : 3 563 kb/s
    Encoded date : UTC 2017-10-03 17: 24: 49
    Writing application : mkvmerge v4.0.0 (\'The Stars were mine\') сборка от Jun 6 2010 16: 18: 42
    Writing library : libebml v1.0.0 + libmatroska v1.0.0
    Video
    ID : 1
    Format : AVC
    Format/Info : Advanced Video Codec
    Format profile : High@L4
    Format settings, CABAC : Yes
    Format settings, RefFrames : 2 frames
    Codec ID : V_MPEG4/ISO/AVC
    Duration : 21 min 36 s
    Bit rate : 3 108 kb/s
    Nominal bit rate : 4 920 kb/s
    Width : 1 920 pixels
    Height : 1 080 pixels
    Display aspect ratio : 16: 9
    Frame rate mode : Constant
    Frame rate : 24.000 FPS
    Color space : YUV
    Chroma subsampling : 4: 2: 0
    Bit depth : 8 bits
    Scan type : Progressive
    Bits/(Pixel*Frame) : 0.062
    Stream size : 481 MiB (87%)
    Writing library : x264 core 148 r2579M 73ae2d1
    Encoding settings : cabac=1/ref=2/deblock=1: 0: 0/analyse=0x3: 0x113/me=hex/subme=2/psy=1/psy_rd=1.00: 0.00/mixed_ref=0/me_range=16/chroma_me=1/trellis=0/8x8dct=1/cqm=0/deadzone=21, 11/fast_pskip=1/chroma_qp_offset=0/threads=1/lookahead_threads=1/sliced_threads=0/nr=250/decimate=1/interlaced=0/bluray_compat=0/stitchable=1/constrained_intra=0/bframes=0/weightp=1/keyint=250/keyint_min=24/scenecut=40/intra_refresh=0/rc_lookahead=10/rc=2pass/mbtree=1/bitrate=4920/ratetol=1.0/qcomp=0.60/qpmin=5/qpmax=69/qpstep=4/cplxblur=20.0/qblur=0.5/ip_ratio=1.40/aq=1: 1.00
    Default : No
    Forced : No
    Audio #1
    ID : 2
    Format : AC-3
    Format/Info : Audio Coding 3
    Format settings, Endianness : Big
    Codec ID : A_AC3
    Duration : 21 min 36 s
    Bit rate mode : Constant
    Bit rate : 192 kb/s
    Channel(s) : 2 channels
    Channel positions : Front: L R
    Sampling rate : 48.0 kHz
    Frame rate : 31.250 FPS (1536 SPF)
    Bit depth : 16 bits
    Compression mode : Lossy
    Delay relative to video : -42 ms
    Stream size : 29.7 MiB (5%)
    Language : Russian
    Service kind : Complete Main
    Default : Yes
    Forced : No
    Audio #2
    ID : 3
    Format : AC-3
    Format/Info : Audio Coding 3
    Format settings, Endianness : Big
    Codec ID : A_AC3
    Duration : 21 min 36 s
    Bit rate mode : Constant
    Bit rate : 192 kb/s
    Channel(s) : 2 channels
    Channel positions : Front: L R
    Sampling rate : 48.0 kHz
    Frame rate : 31.250 FPS (1536 SPF)
    Bit depth : 16 bits
    Compression mode : Lossy
    Delay relative to video : -42 ms
    Stream size : 29.7 MiB (5%)
    Language : English
    Service kind : Complete Main
    Default : No
    Forced : No


    Онлайн видео Гриффины



    Гриффины/Family Guy (2017) WEBRip [H.264/1080p-LQ] (сезон 16, серии 1 из 20) [MVO] (обновляемая) [AD]
    загрузка...
    Рейтинг →
     (голосов: 1, оценка 4/5, голосовать можно 1 раз )

    Другие торренты по теме:

  • Гриффины / Family Guy (2014) WEB-DLRip (Сезон 13, Серии 1-3 из ) (Обновляемая)
  • Гриффины / Family Guy (2015) WEB-DL [H.264 / 720p] (14 сезон, 1-9 серия из 18) Jaskier (Обновляемая)
  • Гриффины / Family Guy (2015) WEB-DLRip [H.264 / 720p] (14 сезон, 1-5 серия из 18) Filiza (Обновляемая)
  • Гриффины / Family Guy (2015) WEB-DL [H.264 / 720p] (14 сезон, 20 серий из 20) Jaskier
  • Гриффины / Family Guy (2016) WEB-DLRip (сезон 15, серии 1 из 20) OMSKBIRD (обновляемая)
  • Гриффины / Family Guy (2016) WEB-DL [H.264 / 720p-LQ] (сезон 15, серии 1 из 20) OMSKBIRD (обновляемая)
  • Гриффины / Family Guy (2015) WEB-DLRip [H.264 / 720p] (14 сезон, 1-11 серия из 20) Filiza (Обновляемая)
  • Гриффины / Family Guy (2016) WEB-DL [H.264 / 720p-LQ] (сезон 15, серии 1-13 из 20) OMSKBIRD (обновляемая)


    • Комментарии (0):

      Информация

      Информация

        Посетители, находящиеся в группе Гости, не могут оставлять комментарии в данной новости.

        ↓ Меню




        ↓ Опрос

        Вы добавили сайт в закладки?
        Да
        Нет


        Top 10 за месяц (Мультфильмы)