.
Авторизация | Регистрация
Хочешь лучшие торренты? Добавь свой email!
Добавить

Торрент скачать бесплатно

» » Оатс - АДАМ: Зеркало / Oats - ADAM: The Mirror (2017) WEBRip [H.264 / 1080p-LQ] [AVO] торрент скачать бесплатно




    Оатс - АДАМ: Зеркало / Oats - ADAM: The Mirror (2017) WEBRip [H.264 / 1080p-LQ] [AVO] торрент скачать бесплатно

    Опубликовал: Админ | Дата: 5-10-2017, 05:00 | Просмотров: 0

    Производство: Канада, Oats Studios
    Жанр: Короткометражный, Компьютерная анимация

    Описание

    Студия Oats Studios воплотила жизнь следующую главу из истории Адама, выполненную в режиме реального времени с использованием движка Unity. Узнайте вместе с нашим героем, страдающим амнезией, кем он был и чем он занимался.
    Релиз от: BadBajo
    Продолжительность: 00: 06: 59
    Качество видео: WEBRip
    Перевод: Авторский (одноголосый, закадровый) - А.Важенин (BadBajo)
    Озвучка/Автор перевода: BadBajo
    Субтитры: Английские (отключаемые)
    Видео: AVC/H.264, 1920х1080, ~2 247 Kbps
    Аудио: MP3, 2 ch, 320 Kbps l Русский AVO, BadBajo
    Аудио: AAC, 2 ch, 126 Kbps l Английский

    Complete name : Oats Volume 1 - ADAM The Mirror_rus_BadBajo.mkv
    Format : Matroska
    Format version : Version 4/Version 2
    File size : 135 MiB
    Duration : 6 min 59 s
    Overall bit rate : 2 696 kb/s
    Movie name : Oats Volume 1 - ADAM The Mirror_rus_BadBajo
    Encoded date : UTC 2017-10-04 15: 12: 15
    Writing application : mkvmerge v13.0.0 (\'The Juggler\') 64bit
    Writing library : libebml v1.3.4 + libmatroska v1.4.5
    Cover : Yes
    Attachments : cover.jpg
    Video
    ID : 1
    Format : AVC
    Format/Info : Advanced Video Codec
    Format profile : High@L4
    Format settings, CABAC : Yes
    Format settings, RefFrames : 2 frames
    Codec ID : V_MPEG4/ISO/AVC
    Duration : 6 min 59 s
    Bit rate : 2 247 kb/s
    Width : 1 920 pixels
    Height : 1 080 pixels
    Display aspect ratio : 16: 9
    Frame rate mode : Constant
    Frame rate : 30.000 FPS
    Color space : YUV
    Chroma subsampling : 4: 2: 0
    Bit depth : 8 bits
    Scan type : Progressive
    Bits/(Pixel*Frame) : 0.036
    Stream size : 112 MiB (83%)
    Default : Yes
    Forced : No
    Color range : Limited
    Color primaries : BT.709
    Transfer characteristics : BT.709
    Matrix coefficients : BT.709
    Audio #1
    ID : 2
    Format : MPEG Audio
    Format version : Version 1
    Format profile : Layer 3
    Mode : Joint stereo
    Codec ID : A_MPEG/L3
    Codec ID/Hint : MP3
    Duration : 6 min 59 s
    Bit rate mode : Constant
    Bit rate : 320 kb/s
    Channel(s) : 2 channels
    Sampling rate : 48.0 kHz
    Frame rate : 41.667 FPS (1152 SPF)
    Compression mode : Lossy
    Stream size : 16.0 MiB (12%)
    Title : Oats Volume 1 - ADAM The Mirror_rus_BadBajo
    Language : Russian
    Default : Yes
    Forced : Yes
    Audio #2
    ID : 3
    Format : AAC
    Format/Info : Advanced Audio Codec
    Format profile : LC
    Codec ID : A_AAC
    Duration : 6 min 59 s
    Bit rate : 126 kb/s
    Channel(s) : 2 channels
    Channel positions : Front: L R
    Sampling rate : 44.1 kHz
    Frame rate : 43.066 FPS (1024 SPF)
    Compression mode : Lossy
    Stream size : 6.28 MiB (5%)
    Language : English
    Default : No
    Forced : No
    Text
    ID : 4
    Format : UTF-8
    Codec ID : S_TEXT/UTF8
    Codec ID/Info : UTF-8 Plain Text
    Duration : 4 min 55 s
    Bit rate : 26 b/s
    Count of elements : 35
    Stream size : 986 Bytes (0%)
    Language : English
    Default : Yes
    Forced : No


    Онлайн видео Оатс - АДАМ: Зеркало



    Оатс - АДАМ: Зеркало/Oats - ADAM: The Mirror (2017) WEBRip [H.264/1080p-LQ] [AVO]
    загрузка...
    Рейтинг →
     (голосов: 1, оценка 4/5, голосовать можно 1 раз )

    Другие торренты по теме:

  • Оатс: Часть 1 - Ракка / Oats: Volume 1 - Rakka (2017) WEBRip [H.264 / 1080p-LQ] [AVO]
  • Оатс: Часть 1 - База / Oats: Volume 1 - Firebase (2017) WEBRip [H.264 / 1080p-LQ] [AVO]
  • Оатс (Часть 1) Готовим вместе с Биллом / Oats: Volume 1 - Cooking With Bill (2017) WEBRip [H.264 / 1080p-LQ] [AVO]
  • Оатс: Часть 1 - Господь / Oats: Volume 1 - God: Serengeti (2017) WEBRip [H.264 / 1080p-LQ] [AVO]
  • Оатс: Часть 1 - Зигота / Oats: Volume 1 - Zygote (2017) WEBRip [H.264 / 1080p-LQ] [AVO]
  • Оатс: Часть 1 - Захват: Гарпун / Oats: Volume 1 - Kapture: Fluke (2017) WEBRip [H.264 / 1080p-LQ] [AVO]


    • Комментарии (0):

      Информация

      Информация

        Посетители, находящиеся в группе Гости, не могут оставлять комментарии в данной новости.

        ↓ Меню




        ↓ Опрос

        Вы добавили сайт в закладки?
        Да
        Нет


        Top 10 за месяц (Мультфильмы)