.
Авторизация | Регистрация
Хочешь лучшие торренты? Добавь свой email!
Добавить

Торрент скачать бесплатно

» » Вольтрон: Защитник Вселенной. Львиный Вольтрон / Voltron: Defender of the Universe. Lion Force (1984) DVDRip (Серии 1-72 из 72 + Voltron: Fleet of Doom) торрент скачать бесплатно




    Вольтрон: Защитник Вселенной. Львиный Вольтрон / Voltron: Defender of the Universe. Lion Force (1984) DVDRip (Серии 1-72 из 72 + Voltron: Fleet of Doom) торрент скачать бесплатно

    Опубликовал: Админ | Дата: 3-10-2017, 05:00 | Просмотров: 0

    Производство: США, Япония
    Жанр: Рисованная анимация, мультфильм, фантастика, семейный
    Режиссер: Франклин Кофод

    Описание

    Из далёкого прошлого, из необъятных космических просторов пришла к нам легенда о подвигах Вольтрона, защитника вселенной, непобедимого робота что внушал любовь людям добрым и ужас - злым. В ту пору в мире царили спокойствие и благоденствие. Созданный на планете Земля Галактический альянс, в который вошли обитаемые планеты солнечной системы, поддерживал во вселенной мир и правопорядок. Но однажды над жителями галактики нависла страшная угроза и людям вновь потребовалась помощь Вольтрона. И тогда были сформированы отряды исследователей космоса и альянс открыл отважным космонавтам древнюю тайну создания Вольтрона, защитника вселенной.

    Возраст: 12+ (зрителям, достигшим 12 лет)
    Дата мировой премьеры: 10 сентября 1984
    Релиз от: Districh
    Продолжительность: ~00: 23: 00 серия
    Качество видео: DVDRip
    Перевод: Дублированный, многоголосый закадровый,
    профессиональный (22 и 23, 69-72 серии)
    Субтитры: отсутствуют
    Видео: Xvid, 464 x 352, ~803 Kbps
    Аудио: MP3, 1 ch, 128 Kbps

    Общее
    Полное имя : E: Lion.Force1 Исследователи космоса захвачены.avi
    Формат : AVI
    Формат/Информация : Audio Video Interleave
    Размер файла : 156 Мбайт
    Продолжительность : 23 м. 14 с.
    Общий поток : 941 Кбит/сек
    Программа кодирования : VirtualDubMod 1.5.4.1 (build 2178/release)
    Библиотека кодирования : VirtualDub-MPEG2 build 24571/release
    Видео
    Идентификатор : 0
    Формат : MPEG-4 Visual
    Профиль формата : Advanced Simple@L5
    Настройки формата : BVOP1/Custom Matrix
    Параметр BVOP формата : 1
    Параметр QPel формата : Нет
    Параметр GMC формата : Без точки перехода
    Параметр матрицы формата : Выборочная
    Идентификатор кодека : XVID
    Идентификатор кодека/Подсказка : XviD
    Продолжительность : 23 м. 14 с.
    Битрейт : 803 Кбит/сек
    Ширина : 464 пикселя
    Высота : 352 пикселя
    Соотношение сторон : 4: 3
    Частота кадров : 25, 000 кадров/сек
    Цветовое пространство : YUV
    Субдискретизация насыщенности : 4: 2: 0
    Битовая глубина : 8 бит
    Тип развёртки : Прогрессивная
    Метод сжатия : С потерями
    Бит/(Пиксели*Кадры) : 0.197
    Размер потока : 134 Мбайт (85%)
    Библиотека кодирования : XviD 1.0.2 (UTC 2004-08-29)
    Аудио
    Идентификатор : 1
    Формат : MPEG Audio
    Версия формата : Version 1
    Профиль формата : Layer 3
    Идентификатор кодека : 55
    Идентификатор кодека/Подсказка : MP3
    Продолжительность : 23 м. 14 с.
    Вид битрейта : Постоянный
    Битрейт : 128 Кбит/сек
    Каналы : 1 канал
    Частота : 48, 0 КГц
    Метод сжатия : С потерями
    Размер потока : 21, 3 Мбайт (14%)
    Выравнивание : Разделение по промежуткам
    Продолжительность промежутка : 40 мс. (1, 00 видеокадр)
    Время предзагрузки промежутка : 500 мс.


    Онлайн видео Вольтрон: Защитник Вселенной. Львиный Вольтрон



    Вольтрон: Защитник Вселенной. Львиный Вольтрон/Voltron: Defender of the Universe. Lion Force (1984) DVDRip (Серии 1-72 из 72 + Voltron: Fleet of Doom)
    загрузка...
    Рейтинг →
     (голосов: 1, оценка 5/5, голосовать можно 1 раз )

    Другие торренты по теме:

  • Вольтрон: Защитник Вселенной. Транспортный Вольтрон / Voltron: Defender of the Universe. Vehicle force (1984) DVDRip (Серии 1-37, 39-52 из 52)


    • Комментарии (0):

      Информация

      Информация

        Посетители, находящиеся в группе Гости, не могут оставлять комментарии в данной новости.

        ↓ Меню




        ↓ Опрос

        Вы добавили сайт в закладки?
        Да
        Нет


        Top 10 за месяц (Мультфильмы)