.
Авторизация | Регистрация
Хочешь лучшие торренты? Добавь свой email!
Добавить

Торрент скачать бесплатно

» » Крепость: щитом и мечом (2015) BDRip [H.264] торрент скачать бесплатно




    Крепость: щитом и мечом (2015) BDRip [H.264] торрент скачать бесплатно

    Опубликовал: Админ | Дата: 3-10-2017, 05:00 | Просмотров: 0

    Производство: Россия
    Жанр: Мультфильм, приключения, военный, семейный
    Режиссер: Федор Дмитриев
    Озвучивали: Пётр Фёдоров, Евгений Стычкин, Елена Шульман, Екатерина Гороховская, Вадим Никитин

    Описание

    1609 год. Идет война. Польско-литовские войска взяли в осаду Смоленск, но русский гарнизон во главе с воеводой Михаилом Шеиным готов держать оборону до конца. Смоленск — главная крепость на пути захватчиков к Москве, и его нельзя сдавать без боя. Об этом знают даже дети.
    Мальчик Сашка лепит самодельные бомбы из теста и колдует в защиту города — вызывает на помощь Царя с Огненным щитом и Пламенным копьем. Пока волшебный царь не пришел, Сашка и его друг Федор просятся в помощники к воеводе. Им предстоит разрушить коварные планы польского короля Сигизмунда Третьего и справиться с нечистой силой, что по ночам бродит по осажденной крепости.

    Возраст: 6+ (зрителям, достигшим 6 лет)
    Дата российской премьеры: 29 октября 2015, Наше Кино
    Продолжительность: 01: 16: 53
    Качество видео: BDRip (Blu-Ray Remux 1080p)
    Перевод: Не требуется (Лицензия)
    Субтитры: отсутствуют.
    Видео: AVC/H.264, 768х320, ~1284 Kbps
    Аудио: AAC, 2 ch, 72 Kbps

    KREPOST.2015.mkv
    Формат : Matroska
    Версия формата : Version 4/Version 2
    Размер файла : 747 Мбайт
    Продолжительность : 1 ч. 16 м.
    Общий поток : 1359 Кбит/сек
    Дата кодирования : UTC 2017-10-02 12: 26: 59
    Программа кодирования : mkvmerge v15.0.0 (\'Duel with the Devil\') 64-bit
    Библиотека кодирования : libebml v1.3.5 + libmatroska v1.4.5
    Видео
    Идентификатор : 1
    Формат : AVC
    Формат/Информация : Advanced Video Codec
    Профиль формата : High@L4.1
    Настройки формата : CABAC/10 Ref Frames
    Параметр CABAC формата : Да
    Параметр RefFrames формата : 10 кадров
    Идентификатор кодека : V_MPEG4/ISO/AVC
    Продолжительность : 1 ч. 16 м.
    Битрейт : 1284 Кбит/сек
    Ширина : 768 пикселей
    Высота : 320 пикселей
    Соотношение сторон : 2, 40: 1
    Режим частоты кадров : Постоянный
    Частота кадров : 24, 000 кадра/сек
    Цветовое пространство : YUV
    Субдискретизация насыщенности : 4: 2: 0
    Битовая глубина : 8 бит
    Тип развёртки : Прогрессивная
    Бит/(Пиксели*Кадры) : 0.218
    Размер потока : 707 Мбайт (95%)
    Библиотека кодирования : x264 core 152 r2851kMod ba24899
    Настройки программы : cabac=1/ref=10/deblock=1: -2: -2/analyse=0x3: 0x113/me=umh/subme=11/psy=1/fade_compensate=0.00/psy_rd=1.00: 0.05/mixed_ref=1/me_range=32/chroma_me=1/trellis=2/8x8dct=1/cqm=0/deadzone=21, 11/fast_pskip=0/chroma_qp_offset=-3/threads=6/lookahead_threads=1/sliced_threads=0/nr=0/decimate=0/interlaced=0/bluray_compat=0/constrained_intra=0/bframes=10/b_pyramid=2/b_adapt=2/b_bias=0/direct=3/weightb=1/open_gop=0/weightp=2/keyint=240/keyint_min=23/scenecut=40/intra_refresh=0/rc_lookahead=40/rc=2pass/mbtree=1/bitrate=1284/ratetol=1.0/qcomp=0.60/qpmin=0/qpmax=69/qpstep=4/cplxblur=20.0/qblur=0.5/vbv_maxrate=50000/vbv_bufsize=62500/nal_hrd=none/filler=0/ip_ratio=1.40/aq=3: 1.00
    Default : Да
    Forced : Нет
    Аудио
    Идентификатор : 2
    Формат : AAC
    Формат/Информация : Advanced Audio Codec
    Профиль формата : LC
    Идентификатор кодека : A_AAC-2
    Продолжительность : 1 ч. 16 м.
    Битрейт : 72, 0 Кбит/сек
    Каналы : 2 канала
    Расположение каналов : Front: L R
    Частота : 48, 0 КГц
    Частота кадров : 46, 875 кадров/сек (1024 SPF)
    Метод сжатия : С потерями
    Задержка видео : 9 мс.
    Размер потока : 39, 6 Мбайт (5%)
    Default : Да
    Forced : Нет

    Скриншоты для ознакомления



    Все одноименные релизы в Клубе
    Время раздачи: 24/7 (до появления первых 3-5 скачавших)

    Онлайн видео Вольтрон: Защитник Вселенной. Транспортный Вольтрон



    Крепость: щитом и мечом (2015) BDRip [H.264]
    загрузка...
    Рейтинг →
     (голосов: 1, оценка 3/5, голосовать можно 1 раз )

    Другие торренты по теме:

  • Крепость: щитом и мечом (2015) WEB-DLRip скачать через торрент бесплатно
  • Крепость: щитом и мечом (2015) WEB-DL [H.264 / 1080p-LQ] скачать через торрент бесплатно
  • Крепость: щитом и мечом (2015) WEB-DL [H.264 / 720p-LQ] скачать через торрент бесплатно
  • Крепость: щитом и мечом (2015) Blu-ray [H.264 / 1080p]
  • Крепость: щитом и мечом (2015) HDRip [H.264] [MP4|960х400]
  • Крепость: щитом и мечом (2015) BDRip [H.264 / 1080p]
  • Крепость: щитом и мечом (2015) BDRemux [H.264 / 1080p]
  • Крепость: щитом и мечом (2015) BDRip [720p] ATV


    • Комментарии (0):

      Информация

      Информация

        Посетители, находящиеся в группе Гости, не могут оставлять комментарии в данной новости.

        ↓ Меню




        ↓ Опрос

        Вы добавили сайт в закладки?
        Да
        Нет


        Top 10 за месяц (Мультфильмы)