.
Авторизация | Регистрация
Хочешь лучшие торренты? Добавь свой email!
Добавить

Торрент скачать бесплатно

» » Дон Кихот Ламанческий / Don Quixote of La Mancha (1987) DVDRip [H.264] торрент скачать бесплатно




    Дон Кихот Ламанческий / Don Quixote of La Mancha (1987) DVDRip [H.264] торрент скачать бесплатно

    Опубликовал: Админ | Дата: 2-10-2017, 05:00 | Просмотров: 0

    Производство: Австралия, Burbank Films Australia
    Жанр: Приключения, Рисованная анимация, Детский
    Режиссер: Уорвик Гилберт

    Описание

    Эта знаменитая история по мотивам романа Мигеля де Сервантеса рассказывает об удивительных приключениях дворянина Дон Кихота Ламанческого, который облачается в старые доспехи и отправляется в рыцарский поход по Средневековой Испании, чтобы защитить справедливость и сделать мир лучше.
    Его верный оруженосец Санчо Пансо отправляется в путь вместе с ним и разделяет со своим хозяином все тяготы рыцарского похода.

    Возраст: 0+ (для любой зрительской аудитории)
    Дата выхода DVD: 24 мая 2006, Вокс Видео
    Релиз от: denver7979
    Продолжительность: 00: 48: 23
    Качество видео: DVDRip H.264
    Перевод: Многоголосый закадровый, профессиональный
    Субтитры: отсутствуют
    Видео: AVC, 704x544 (1.294), 25.000 fps, 1 938 Kbps (0.202 bit/pixel)
    Аудио: AC-3, 48.0 KHz, 2 ch, 192 Kbps, CBR

    Формат : Matroska
    Версия формата : Version 2
    Размер файла : 738 Мбайт
    Продолжительность : 48 м. 23 с.
    Общий поток : 2132 Кбит/сек
    Дата кодирования : UTC 2017-09-30 19: 14: 00
    Программа кодирования : mkvmerge v6.1.0 (\'Old Devil\') built on Mar 4 2013 09: 10: 42
    Библиотека кодирования : libebml v1.3.0 + libmatroska v1.4.0
    Видео
    Идентификатор : 1
    Формат : AVC
    Формат/Информация : Advanced Video Codec
    Профиль формата : High@L4.1
    Параметр CABAC формата : Да
    Параметр ReFrames формата : 6 кадров
    Идентификатор кодека : V_MPEG4/ISO/AVC
    Продолжительность : 48 м. 23 с.
    Битрейт : 1938 Кбит/сек
    Ширина : 704 пикселя
    Высота : 544 пикселя
    Соотношение сторон : 1, 294
    Режим частоты кадров : Постоянный
    Частота кадров : 25, 000 кадров/сек
    Цветовое пространство : YUV
    Субдискретизация насыщенности : 4: 2: 0
    Битовая глубина : 8 бит
    Тип развёртки : Прогрессивная
    Бит/(Пиксели*Кадры) : 0.202
    Размер потока : 657 Мбайт (89%)
    Библиотека кодирования : x264 core 130 r2273 b3065e6
    Настройки программы : cabac=1/ref=6/deblock=1: 1: 1/analyse=0x3: 0x113/me=umh/subme=10/psy=1/psy_rd=0.40: 0.00/mixed_ref=1/me_range=32/chroma_me=1/trellis=2/8x8dct=1/cqm=0/deadzone=21, 11/fast_pskip=0/chroma_qp_offset=-2/threads=3/lookahead_threads=1/sliced_threads=0/nr=0/decimate=1/interlaced=0/bluray_compat=0/constrained_intra=0/bframes=5/b_pyramid=2/b_adapt=2/b_bias=0/direct=3/weightb=1/open_gop=0/weightp=2/keyint=250/keyint_min=25/scenecut=40/intra_refresh=0/rc_lookahead=40/rc=2pass/mbtree=1/bitrate=1938/ratetol=1.0/qcomp=0.60/qpmin=0/qpmax=69/qpstep=4/cplxblur=20.0/qblur=0.5/ip_ratio=1.40/aq=1: 0.60
    Default : Да
    Forced : Нет
    Аудио
    Идентификатор : 2
    Формат : AC-3
    Формат/Информация : Audio Coding 3
    Расширение режима : CM (complete main)
    Параметр Endianness формата : Big
    Идентификатор кодека : A_AC3
    Продолжительность : 48 м. 23 с.
    Вид битрейта : Постоянный
    Битрейт : 192 Кбит/сек
    Каналы : 2 канала
    Расположение каналов : Front: L R
    Частота : 48, 0 КГц
    Частота кадров : 31, 250 кадров/сек (1536 spf)
    Битовая глубина : 16 бит
    Метод сжатия : С потерями
    Размер потока : 66, 4 Мбайт (9%)
    Default : Да
    Forced : Нет

    Скриншоты для ознакомления



    Все одноименные релизы в Клубе
    Время раздачи: с 11: 00 до 01: 00 (до появления первых 3-5 скачавших)

    Онлайн видео Дон Кихот Ламанческий



    Дон Кихот Ламанческий/Don Quixote of La Mancha (1987) DVDRip [H.264]
    загрузка...
    Рейтинг →
     (голосов: 1, оценка 3/5, голосовать можно 1 раз )

    Другие торренты по теме:

  • Дон Кихот Ламанческий / Don Quixote of La Mancha (1987) DVDRip


    • Комментарии (0):

      Информация

      Информация

        Посетители, находящиеся в группе Гости, не могут оставлять комментарии в данной новости.

        ↓ Меню




        ↓ Опрос

        Вы добавили сайт в закладки?
        Да
        Нет


        Top 10 за месяц (Мультфильмы)