.
Авторизация | Регистрация
Хочешь лучшие торренты? Добавь свой email!
Добавить

Торрент скачать бесплатно

» » Gekijouban Kuroko no Baske: Last Game | Kurokos basketbal: Last Game | Баскетбол Куроко: последняя игра [2017, Movie] BDRip 1080p raw торрент скачать бесплатно




    Gekijouban Kuroko no Baske: Last Game | Kurokos basketbal: Last Game | Баскетбол Куроко: последняя игра [2017, Movie] BDRip 1080p raw торрент скачать бесплатно

    Опубликовал: Админ | Дата: 30-09-2017, 05:00 | Просмотров: 0

    Тип: Movie
    Жанр: спорт
    Продолжительность: 90 мин.
    Дата выпуска: 18.03.2017
    Производство: СтудияProduction I.G
    Режиссер: Tada Shunsuke
    Ссылки: World-ArtANNAniDBMAL

    Описание

    В японском молодежном баскетболе все знают среднюю школу Тэйко, клуб которой славен не только традициями, но и великолепной дрим тим, чудо-поколением, пятеркой гениев, которая в последние годы выиграла в своей категории все, что можно. Настало время – и пятеро юных талантов разошлись по пяти старшим школам – разумеется, столь же престижным в спортивном плане. Но лишь немногие знали, что кроме прославленной пятерки в команде Тэйко был и шестой, мало чем уступавший им игрок, чье имя и заслуги по какой-то причине так и остались в тени…
    Язык озвучки: Японский
    Субтитры: Английские, Русские
    Перевод: Aniplay
    Качество видео: BDRip
    Видео: AVC (High@L4), 1920x1080 (16: 9), ~30.000 fps, ~4871 kbps
    Аудио: AAC HE-AAC/LC, 2 ch, 44.1 kHz, ~128 kbps

    Скриншоты для ознакомления



    В каком порядке смотреть
    Kuroko no Basuke/Kuroko\'s Basketball/Баскетбол Куроко ТВ-1 2012, TV + OVA, 25 + 1 + 9sp BDrip 1080p Hi10p raw
    Kuroko no Basuke 2 | Kuroko`s Basketball 2 | Баскетбол Куроко ТВ-2 2013-2014, TV + OVA, 25 + 1 + 9sp BDrip 1080p Hi10p raw
    Kuroko no Basuke 3/Kuroko\'s Basketball 3/Баскетбол Куроко 3 2015, TV, 18 из 26 HDTV 1080p raw
    Баскетбол Куроко (компиляция) - п/ф (3 эп.), компиляция ТВ-сериала, 2016
    Баскетбол Куроко (фильм) - п/ф, продолжение, 2017

    General
    Complete name : H: Kuroko no Basket Last Game BDRip 1080PUrbanTbc Kuroko no Basket Last Game 1080P.mp4
    Format : MPEG-4
    Format profile : Base Media
    Codec ID : isom (isom/avc1)
    File size : 3.14 GiB
    Duration : 1 h 29 min
    Overall bit rate mode : Variable
    Overall bit rate : 5 001 kb/s
    Encoded date : UTC 2017-09-18 08: 14: 09
    Tagged date : UTC 2017-09-18 08: 14: 09
    Video
    ID : 1
    Format : AVC
    Format/Info : Advanced Video Codec
    Format profile : High@L4
    Format settings, CABAC : Yes
    Format settings, RefFrames : 4 frames
    Codec ID : avc1
    Codec ID/Info : Advanced Video Coding
    Duration : 1 h 29 min
    Bit rate : 4 871 kb/s
    Maximum bit rate : 22.0 Mb/s
    Width : 1 920 pixels
    Height : 1 080 pixels
    Display aspect ratio : 16: 9
    Frame rate mode : Constant
    Frame rate : 30.000 FPS
    Color space : YUV
    Chroma subsampling : 4: 2: 0
    Bit depth : 8 bits
    Scan type : Progressive
    Bits/(Pixel*Frame) : 0.078
    Stream size : 3.06 GiB (97%)
    Writing library : x264 core 129 r2230 1cffe9f
    Encoding settings : cabac=1/ref=1/deblock=1: 0: 0/analyse=0x3: 0x113/me=hex/subme=2/psy=0/mixed_ref=0/me_range=16/chroma_me=1/trellis=0/8x8dct=1/cqm=0/deadzone=21, 11/fast_pskip=1/chroma_qp_offset=0/threads=12/lookahead_threads=2/sliced_threads=0/nr=0/decimate=1/interlaced=0/bluray_compat=0/constrained_intra=0/bframes=3/b_pyramid=2/b_adapt=1/b_bias=0/direct=1/weightb=1/open_gop=0/weightp=1/keyint=300/keyint_min=30/scenecut=40/intra_refresh=0/rc_lookahead=10/rc=2pass/mbtree=1/bitrate=4871/ratetol=1.0/qcomp=0.60/qpmin=0/qpmax=69/qpstep=4/cplxblur=20.0/qblur=0.5/ip_ratio=1.40/aq=2: 1.00
    Encoded date : UTC 2017-09-18 08: 14: 09
    Tagged date : UTC 2017-09-18 08: 14: 22
    Audio
    ID : 2
    Format : AAC
    Format/Info : Advanced Audio Codec
    Format profile : HE-AAC/LC
    Codec ID : 40
    Duration : 1 h 29 min
    Bit rate mode : Variable
    Bit rate : 128 kb/s
    Maximum bit rate : 145 kb/s
    Channel(s) : 2 channels
    Channel positions : Front: L R
    Sampling rate : 44.1 kHz/22.05 kHz
    Frame rate : 21.533 FPS (1024 SPF)
    Compression mode : Lossy
    Stream size : 82.1 MiB (3%)
    Language : gaa
    Encoded date : UTC 2017-09-18 06: 37: 08
    Tagged date : UTC 2017-09-18 08: 14: 22
    Время раздачи: 24/7 (круглосуточно) (до появления первых 3-5 скачавших)

    Онлайн видео Gekijouban Kuroko no Baske: Last Game



    Gekijouban Kuroko no Baske: Last Game | Kurokos basketbal: Last Game | Баскетбол Куроко: последняя игра [2017, Movie] BDRip 1080p raw
    загрузка...
    Рейтинг →
     (голосов: 1, оценка 3/5, голосовать можно 1 раз )

    Другие торренты по теме:

  • Gekijouban Kara no Kyoukai: Mirai Fukuin / The Garden of Sinners: Recalled out Summer / Граница пустоты: Источник будущего счастья [2013, MV+SP] BDRip Hi10p 720p Raw+Rus скачать через торрент бесплатно
  • Gekijouban Naruto: Dai Koufun! Mikazukijima no Animal Panic Datte ba yo! | Naruto the Movie 3: Guardians of the Crescent Moon Kingdom [2004, MV] BDRip 1080p Hi10p raw скачать через торрент бесплатно
  • Gekijouban Naruto: Dai Gekitotsu! Maboroshi no Chitei Iseki Datte ba yo! | Naruto the Movie 2 | Наруто Фильм 2 [2005, MV] BDRip 1080p Hi10p raw скачать через торрент бесплатно
  • Gekijouban Naruto: Dai Katsugeki! Yuki Hime Ninpouchou Datte ba yo! | Naruto the Movie: Ninja Clash in the Land of Snow | Наруто (фильм1) [2004, MV] BDRip 1080p Hi10p raw скачать через торрент бесплатно
  • Shin Gekijouban Initial D / New Initial D / Новый Инициал Ди [2014, MV, 1 из 3 ep] BDRip 720p Raw скачать через торрент бесплатно
  • Shin Gekijouban Initial D / New Initial D / Новый Инициал Ди [2014, MV, 1 из 3 ep] BDRip 720p Raw+Rus скачать через торрент бесплатно
  • Evangelion Shin Gekijouban: Jo / Evangelion 1.0: You Are (Not) Alone / Евангелион 1.11: Ты (не) один [2007, Movie] BDRemux raw+rus скачать через торрент бесплатно
  • Cobra Gekijouban | Space Adventure Cobra: The Movie | Космические приключения Кобры - Фильм [1982, MV] BDRip 1080p Hi10P raw скачать через торрент бесплатно


    • Комментарии (0):

      Информация

      Информация

        Посетители, находящиеся в группе Гости, не могут оставлять комментарии в данной новости.

        ↓ Меню




        ↓ Опрос

        Вы добавили сайт в закладки?
        Да
        Нет


        Top 10 за месяц (Мультфильмы)