.
Авторизация | Регистрация
Хочешь лучшие торренты? Добавь свой email!
Добавить

Торрент скачать бесплатно

» » Blade Runner: Black Out 2022 | Бегущий по лезвию: отключение света 2022 [2017, Special, 1 эп.] WEB-DL 1080p raw торрент скачать бесплатно




    Blade Runner: Black Out 2022 | Бегущий по лезвию: отключение света 2022 [2017, Special, 1 эп.] WEB-DL 1080p raw торрент скачать бесплатно

    Опубликовал: Админ | Дата: 28-09-2017, 05:00 | Просмотров: 2

    Жанр: приключения, фантастика
    Тип: Web
    Продолжительность: 1 эп. по 15 мин.
    Количество серий: 1 из 1
    Выпуск: 26.09.2017
    Производство: студияCygames Pictures
    Режиссер: Ватанабэ Синъитиро
    Ссылки: World-Art, AniDB

    Описание

    Короткометражный аниме-фильм, действие которого разворачивается через три года после событий оригинального Бегущего по лезвию и за 27 лет до начала нового, в центре повествования — масштабное отключение электроэнергии на западном побережье США.
    В начале фильма записано обращение режиссёра нового фильма к зрителям:
    Привет. Меня зовут Дэни Вильнёв, и мне выпала невероятная возможность снять Бегущего по лезвию 2049, где прошло тридцать лет после событий первого фильма. Поэтому я решил попросить пару уважаемых мной авторов снять три короткометражки о ключевых событиях, происходящих между 2019 годом, во время которого развивался сюжет оригинала, и 2049, в котором начинаются события моего фильма. Я крайне польщен, что Ватанабэ, чьи работы я очень люблю, согласился снять это короткометражное аниме. Надеюсь, история о 2022 годе вам понравится.
    Качество видео: WEB-DL
    Видео: AVC (High@L4), 1920x1080 (16: 9), ~23.976 fps, ~6249 kbps
    Аудио: AAC LC, 2 ch, 44.1 kHz, ~126 kbps |Звук: Японский
    Язык озвучки: Японский
    Субтитры: Русские
    Перевод: Akashi BBNG

    Скриншоты для ознакомления



    Код: выделить все

    General
    Unique ID : 251998644274803269676174828123240784915 (0xBD952C6A31844A02BEA59616BBB3E413)
    Complete name : Blade Runner Black Out 2022Blade Runner Black Out 2022 [1080p].mkv
    Format : Matroska
    Format version : Version 4/Version 2
    File size : 720 MiB
    Duration : 15 min 46 s
    Overall bit rate : 6 377 kb/s
    Encoded date : UTC 2017-09-27 19:40:04
    Writing application : mkvmerge v8.9.0 (\'Father Daughter\') 64bit
    Writing library : libebml v1.3.3 + libmatroska v1.4.4
    Video
    ID : 1
    Format : AVC
    Format/Info : Advanced Video Codec
    Format profile : High@L4
    Format settings, CABAC : Yes
    Format settings, RefFrames : 4 frames
    Codec ID : V_MPEG4/ISO/AVC
    Duration : 15 min 46 s
    Bit rate : 6 249 kb/s
    Width : 1 920 pixels
    Height : 1 080 pixels
    Display aspect ratio : 16:9
    Frame rate mode : Constant
    Frame rate : 23.976 (24000/1001) FPS
    Color space : YUV
    Chroma subsampling : 4:2:0
    Bit depth : 8 bits
    Scan type : Progressive
    Bits/(Pixel*Frame) : 0.126
    Stream size : 705 MiB (98%)
    Writing library : x264 core 142
    Encoding settings : cabac=1/ref=4/deblock=1:1:1/analyse=0x3:0x113/me=umh/subme=8/psy=1/psy_rd=0.40:0.00/mixed_ref=1/me_range=16/chroma_me=1/trellis=1/8x8dct=1/cqm=0/deadzone=21, 11/fast_pskip=1/chroma_qp_offset=-2/threads=12/lookahead_threads=2/sliced_threads=0/nr=0/decimate=1/interlaced=0/bluray_compat=0/constrained_intra=0/bframes=3/b_pyramid=2/b_adapt=2/b_bias=0/direct=3/weightb=1/open_gop=0/weightp=2/keyint=48/keyint_min=24/scenecut=40/intra_refresh=0/rc_lookahead=48/rc=crf/mbtree=1/crf=15.0/qcomp=0.60/qpmin=0/qpmax=69/qpstep=4/vbv_maxrate=8000/vbv_bufsize=12000/crf_max=0.0/nal_hrd=none/filler=0/ip_ratio=1.40/aq=1:0.60
    Language : Japanese
    Default : Yes
    Forced : No
    Audio
    ID : 2
    Format : AAC
    Format/Info : Advanced Audio Codec
    Format profile : LC
    Codec ID : A_AAC
    Duration : 15 min 44 s
    Bit rate : 126 kb/s
    Channel(s) : 2 channels
    Channel positions : Front: L R
    Sampling rate : 44.1 kHz
    Frame rate : 43.066 FPS (1024 SPF)
    Compression mode : Lossy
    Stream size : 14.1 MiB (2%)
    Language : Japanese
    Default : Yes
    Forced : No
    Время раздачи: круглосуточно

    Онлайн видео Blade Runner: Black Out 2022



    Blade Runner: Black Out 2022 | Бегущий по лезвию: отключение света 2022 [2017, Special, 1 эп.] WEB-DL 1080p raw
    загрузка...
    Рейтинг →
     (голосов: 1, оценка 3/5, голосовать можно 1 раз )

    Другие торренты по теме:



      Комментарии (0):

      Информация

      Информация

        Посетители, находящиеся в группе Гости, не могут оставлять комментарии в данной новости.

        ↓ Меню




        ↓ Опрос

        Вы добавили сайт в закладки?
        Да
        Нет


        Top 10 за месяц (Мультфильмы)