.
Авторизация | Регистрация
Хочешь лучшие торренты? Добавь свой email!
Добавить

Торрент скачать бесплатно

» » Гадкий я 3 / Despicable Me 3 (2017) BDRip 3D [H.264 / 1080p] [Вертикальная анаморфная стереопара] торрент скачать бесплатно




    Гадкий я 3 / Despicable Me 3 (2017) BDRip 3D [H.264 / 1080p] [Вертикальная анаморфная стереопара] торрент скачать бесплатно

    Опубликовал: Админ | Дата: 27-09-2017, 05:00 | Просмотров: 0

    Производство: США, Universal Pictures, Illumination Entertainment
    Жанр: Мультфильм, Фантастика, Боевик, Комедия, Приключения, Cемейный
    Режиссер: Эрик Гуильон, Кайл Балда, Пьер Коффан
    Персонажи: Стив Карелл, Кристен Уиг, Трей Паркер, Миранда Косгров, Дэна Гайер, Нев Шаррел, Пьер Коффан, Стив Куган, Джули Эндрюс, Дженни Слейт

    Описание

    Грядет третье пришествие. Многодетный суперагент, роковая красотка и бессмертные миньоны на подходе. Готовьтесь. Они будут править миром.

    Возраст: 6+ (зрителям, достигшим 6 лет)
    Рейтинг MPAA: PG (рекомендуется присутствие родителей)
    Дата мировой премьеры: 14 июня 2017
    Дата российской премьеры: 29 июня 2017, UPI
    Релиз от: Ash61
    Продолжительность: 01: 29: 41
    Качество видео: BDRip 3D (1080p)
    Перевод: Дублированный (iTunes)
    Субтитры: Русские (forced, full), Украинские (forced), английские (Full, SDH) (вшитые, внешние)
    Видео: AVC/H.264, 1920х1080, ~11.5 Mbps, 23, 976 fps
    Аудио: AC3, 6 ch, 384 Kbps - Русский
    Аудио: AC3, 2 ch, 192 Kbps - Украинский
    Аудио: AC3, 6 ch, 640 Kbps - Английский

    General
    Unique ID : 186101944828943606268057689235815704562 (0x8C01EE4A94135558A90103369298A7F2)
    Complete name : D: DespicableMe3(2017)3D-halfOU(Ash61)iTunesDespicableMe3(2017)3D-halfOU(Ash61)iTunes.mkv
    Format : Matroska
    Format version : Version 2
    File size : 7.97 GiB
    Duration : 1 h 29 min
    Overall bit rate : 12.7 Mb/s
    Movie name : Гадкий я 3/Despicable Me 3 (2017) в 3Д
    Encoded date : UTC 2017-09-26 01: 42: 03
    Writing application : mkvmerge v5.8.0 (\'No Sleep/Pillow\') built on Sep 2 2012 15: 37: 04
    Writing library : libebml v1.2.3 + libmatroska v1.3.0
    Video
    ID : 1
    Format : AVC
    Format/Info : Advanced Video Codec
    Format profile : High@L4.1
    Format settings, CABAC : Yes
    Format settings, RefFrames : 4 frames
    Codec ID : V_MPEG4/ISO/AVC
    Duration : 1 h 29 min
    Bit rate : 11.5 Mb/s
    Width : 1 920 pixels
    Height : 1 080 pixels
    Display aspect ratio : 16: 9
    Frame rate mode : Constant
    Frame rate : 23.976 (24000/1001) FPS
    Color space : YUV
    Chroma subsampling : 4: 2: 0
    Bit depth : 8 bits
    Scan type : Progressive
    Bits/(Pixel*Frame) : 0.231
    Stream size : 7.05 GiB (88%)
    Title : BDRip by Ash61
    Writing library : x264 core 146 r2538 121396c
    Encoding settings : cabac=1/ref=4/deblock=1: -3: -3/analyse=0x3: 0x113/me=umh/subme=10/psy=1/psy_rd=1.00: 0.00/mixed_ref=1/me_range=32/chroma_me=1/trellis=2/8x8dct=1/cqm=0/deadzone=21, 11/fast_pskip=0/chroma_qp_offset=-2/threads=12/lookahead_threads=2/sliced_threads=0/nr=0/decimate=0/interlaced=0/bluray_compat=0/constrained_intra=0/bframes=9/b_pyramid=2/b_adapt=2/b_bias=0/direct=3/weightb=1/open_gop=0/weightp=2/keyint=250/keyint_min=23/scenecut=40/intra_refresh=0/rc=2pass/mbtree=0/bitrate=11500/ratetol=1.0/qcomp=0.70/qpmin=0/qpmax=69/qpstep=4/cplxblur=20.0/qblur=0.5/frame-packing=4/ip_ratio=1.40/pb_ratio=1.30/aq=1: 0.70
    Language : English
    Default : Yes
    Forced : No
    Audio #1
    ID : 2
    Format : AC-3
    Format/Info : Audio Coding 3
    Format settings, Endianness : Big
    Codec ID : A_AC3
    Duration : 1 h 29 min
    Bit rate mode : Constant
    Bit rate : 384 kb/s
    Channel(s) : 6 channels
    Channel positions : Front: L C R, Side: L R, LFE
    Sampling rate : 48.0 kHz
    Frame rate : 31.250 FPS (1536 SPF)
    Bit depth : 16 bits
    Compression mode : Lossy
    Stream size : 246 MiB (3%)
    Title : Дубляж - iTunes
    Language : Russian
    Service kind : Complete Main
    Default : Yes
    Forced : No
    Audio #2
    ID : 3
    Format : AC-3
    Format/Info : Audio Coding 3
    Format settings, Endianness : Big
    Codec ID : A_AC3
    Duration : 1 h 29 min
    Bit rate mode : Constant
    Bit rate : 192 kb/s
    Channel(s) : 2 channels
    Channel positions : Front: L R
    Sampling rate : 48.0 kHz
    Frame rate : 31.250 FPS (1536 SPF)
    Bit depth : 16 bits
    Compression mode : Lossy
    Stream size : 123 MiB (2%)
    Title : Дубляж - Line (моно)
    Language : Ukrainian
    Service kind : Complete Main
    Default : No
    Forced : No
    Audio #3
    ID : 4
    Format : AC-3
    Format/Info : Audio Coding 3
    Format settings, Endianness : Big
    Codec ID : A_AC3
    Duration : 1 h 29 min
    Bit rate mode : Constant
    Bit rate : 640 kb/s
    Channel(s) : 6 channels
    Channel positions : Front: L C R, Side: L R, LFE
    Sampling rate : 48.0 kHz
    Frame rate : 31.250 FPS (1536 SPF)
    Bit depth : 16 bits
    Compression mode : Lossy
    Stream size : 411 MiB (5%)
    Title : Original
    Language : English
    Service kind : Complete Main
    Default : No
    Forced : No
    Text #1
    ID : 5
    Format : UTF-8
    Codec ID : S_TEXT/UTF8
    Codec ID/Info : UTF-8 Plain Text
    Title : Форсированные
    Language : Russian
    Default : Yes
    Forced : No
    Text #2
    ID : 6
    Format : UTF-8
    Codec ID : S_TEXT/UTF8
    Codec ID/Info : UTF-8 Plain Text
    Title : Полные
    Language : Russian
    Default : No
    Forced : No
    Text #3
    ID : 7
    Format : UTF-8
    Codec ID : S_TEXT/UTF8
    Codec ID/Info : UTF-8 Plain Text
    Title : Форсированные
    Language : Ukrainian
    Default : No
    Forced : No
    Text #4
    ID : 8
    Format : UTF-8
    Codec ID : S_TEXT/UTF8
    Codec ID/Info : UTF-8 Plain Text
    Title : Full
    Language : English
    Default : No
    Forced : No
    Text #5
    ID : 9
    Format : UTF-8
    Codec ID : S_TEXT/UTF8
    Codec ID/Info : UTF-8 Plain Text
    Title : SDH
    Language : English
    Default : No
    Forced : No
    Menu
    00: 00: 00.000 : : 1
    00: 03: 06.102 : : 2
    00: 07: 57.975 : : 3
    00: 11: 12.836 : : 4
    00: 16: 15.764 : : 5
    00: 20: 07.497 : : 6
    00: 24: 07.988 : : 7
    00: 28: 57.067 : : 8
    00: 32: 55.346 : : 9
    00: 39: 01.838 : : 10
    00: 42: 44.186 : : 11
    00: 46: 47.179 : : 12
    00: 50: 55.635 : : 13
    00: 56: 12.077 : : 14
    01: 00: 02.264 : : 15
    01: 05: 41.228 : : 16
    01: 10: 14.542 : : 17
    01: 14: 33.760 : : 18
    01: 19: 29.720 : : 19
    01: 21: 56.993 : : 20

    Скриншоты для ознакомления



    Все одноименные релизы в Клубе
    Время раздачи: 24/7 до 5 скачавших (до появления первых 3-5 скачавших)

    Гадкий я 3/Despicable Me 3 (2017) BDRip 3D [H.264/1080p] [Вертикальная анаморфная стереопара]
    загрузка...
    Рейтинг →
     (голосов: 1, оценка 3/5, голосовать можно 1 раз )

    Другие торренты по теме:

  • Despicable Me / Гадкий Я 2.8.0k [Ru] скачать через торрент бесплатно
  • Гадкий я 3 / Despicable Me 3 (2017) TS [H.264] [MP4|720x304] [AD]
  • Гадкий Я / Despicable Me (2010) BDRip [H.265 / 1080p-LQ]
  • Гадкий Я 2 / Despicable Me 2 (2013) BDRip [H.265 / 1080p-LQ]
  • Гадкий я 3 / Despicable Me 3 (2017) WEBRip [H.264 / 1080p-LQ] [EN / EN Sub]
  • Гадкий я 3 / Despicable Me 3 (2017) WEBRip [AD]
  • Гадкий я 3 / Despicable Me 3 (2017) WEBRip [H.264 / 1080p-LQ] [AD]
  • Гадкий я 3 / Despicable Me 3 (2017) WEB-DL [H.264 / 1080p-LQ] [EN / EN Sub]


    • Комментарии (0):

      Информация

      Информация

        Посетители, находящиеся в группе Гости, не могут оставлять комментарии в данной новости.

        ↓ Меню




        ↓ Опрос

        Вы добавили сайт в закладки?
        Да
        Нет


        Top 10 за месяц (Мультфильмы)