.
Авторизация | Регистрация
Хочешь лучшие торренты? Добавь свой email!
Добавить

Торрент скачать бесплатно

» » Гадкий я 3 / Despicable Me 3 (2017) BDRip 3D [H.264 / 1080p] [вертикальная анаморфная стереопара] [handmade 16:9] торрент скачать бесплатно




    Гадкий я 3 / Despicable Me 3 (2017) BDRip 3D [H.264 / 1080p] [вертикальная анаморфная стереопара] [handmade 16:9] торрент скачать бесплатно

    Опубликовал: Админ | Дата: 27-09-2017, 05:00 | Просмотров: 0

    Производство: США, Illumination Entertainment, Universal Pictures
    Жанр: Мультфильм, фантастика, боевик, комедия, приключения, семейный
    Режиссер: Эрик Гуильон, Кайл Балда, Пьер Коффан
    Продюсер: Джанет Хили, Бретт Хоффман, Кристофер Меледандри
    Персонажи: Стив Карелл, Кристен Уиг, Трей Паркер, Миранда Косгров, Дэна Гайер, Нев Шаррел, Пьер Коффан, Стив Куган, Джули Эндрюс, Дженни Слейт

    Описание

    Грядет третье пришествие. Многодетный суперагент, роковая красотка и бессмертные миньоны на подходе. Готовьтесь. Они будут править миром.

    Возраст: 6+ (зрителям, достигшим 6 лет)
    Рейтинг MPAA: PG (рекомендуется присутствие родителей)
    Дата мировой премьеры: 14 июня 2017.
    Дата российской премьеры: 29 июня 2017, UPI
    Продолжительность: 01: 29: 40
    Качество видео: BDRip
    Перевод: Дублированный (iTunes)
    Субтитры: Английские (полные)
    Видео: AVC/H.264, 1920x1080, ~10 Mbps
    Аудио #1: AC3 6 ch ~384 kbps - Русский
    Аудио #2: DTS 6 ch ~768 kbps - Английский

    Format : Matroska
    Format version : Version 4/Version 2
    File size : 6.98 GiB
    Duration : 1h 29mn
    Overall bit rate : 11.1 Mbps
    Movie name : DESPICABLE_ME_3_3D_RMX.Title0
    Encoded date : UTC 2017-09-26 00: 40: 50
    Writing application : mkvmerge v9.8.0 (\'Kuglblids\') 64bit
    Writing library : libebml v1.3.4 + libmatroska v1.4.5
    Video
    ID : 1
    Format : AVC
    Format/Info : Advanced Video Codec
    Format profile : High@L4.1
    Format settings, CABAC : Yes
    Format settings, ReFrames : 4 frames
    Codec ID : V_MPEG4/ISO/AVC
    Duration : 1h 29mn
    Bit rate : 10 000 Kbps
    Width : 1 920 pixels
    Height : 1 080 pixels
    Display aspect ratio : 16: 9
    Frame rate mode : Constant
    Frame rate : 23.976 fps
    Color space : YUV
    Chroma subsampling : 4: 2: 0
    Bit depth : 8 bits
    Scan type : Progressive
    Bits/(Pixel*Frame) : 0.201
    Stream size : 6.12 GiB (88%)
    Writing library : x264 core 152 r2851M ba24899
    Encoding settings : cabac=1/ref=4/deblock=1: -3: -3/analyse=0x3: 0x113/me=umh/subme=10/psy=1/psy_rd=1.05: 0.10/mixed_ref=1/me_range=24/chroma_me=1/trellis=2/8x8dct=1/cqm=0/deadzone=21, 11/fast_pskip=0/chroma_qp_offset=-3/threads=5/lookahead_threads=1/sliced_threads=0/nr=0/decimate=1/interlaced=0/bluray_compat=0/constrained_intra=0/bframes=6/b_pyramid=2/b_adapt=2/b_bias=0/direct=1/weightb=1/open_gop=0/weightp=2/keyint=230/keyint_min=23/scenecut=40/intra_refresh=0/rc=2pass/mbtree=0/bitrate=10000/ratetol=1.0/qcomp=0.70/qpmin=3/qpmax=69/qpstep=4/cplxblur=20.0/qblur=0.5/ip_ratio=1.40/pb_ratio=1.30/aq=2: 1.00
    Audio #1
    ID : 2
    Format : AC-3
    Format/Info : Audio Coding 3
    Mode extension : CM (complete main)
    Format settings, Endianness : Big
    Codec ID : A_AC3
    Duration : 1h 29mn
    Bit rate mode : Constant
    Bit rate : 384 Kbps
    Channel(s) : 6 channels
    Channel positions : Front: L C R, Side: L R, LFE
    Sampling rate : 48.0 KHz
    Bit depth : 16 bits
    Compression mode : Lossy
    Stream size : 246 MiB (3%)
    Language : Russian
    Default : Yes
    Forced : No
    Audio #2
    ID : 3
    Format : DTS
    Format/Info : Digital Theater Systems
    Mode : 16
    Format settings, Endianness : Big
    Codec ID : A_DTS
    Duration : 1h 29mn
    Bit rate mode : Constant
    Bit rate : 768 Kbps
    Channel(s) : 6 channels
    Channel positions : Front: L C R, Side: L R, LFE
    Sampling rate : 48.0 KHz
    Bit depth : 16 bits
    Compression mode : Lossy
    Stream size : 493 MiB (7%)
    Language : English
    Default : No
    Forced : No
    Text
    ID : 4
    Format : UTF-8
    Codec ID : S_TEXT/UTF8
    Codec ID/Info : UTF-8 Plain Text
    Title : SDH
    Language : English
    Default : No
    Forced : No

    Скриншоты для ознакомления



    Все одноименные релизы в Клубе
    Время раздачи: 24/7 (до появления первых 3-5 скачавших)

    Гадкий я 3/Despicable Me 3 (2017) BDRip 3D [H.264/1080p] [вертикальная анаморфная стереопара] [handmade 16:9]
    загрузка...
    Рейтинг →
     (голосов: 1, оценка 4/5, голосовать можно 1 раз )

    Другие торренты по теме:

  • Despicable Me / Гадкий Я 2.8.0k [Ru] скачать через торрент бесплатно
  • Гадкий я 3 / Despicable Me 3 (2017) TS [H.264] [MP4|720x304] [AD]
  • Гадкий Я / Despicable Me (2010) BDRip [H.265 / 1080p-LQ]
  • Гадкий Я 2 / Despicable Me 2 (2013) BDRip [H.265 / 1080p-LQ]
  • Гадкий я 3 / Despicable Me 3 (2017) WEBRip [H.264 / 1080p-LQ] [EN / EN Sub]
  • Гадкий я 3 / Despicable Me 3 (2017) WEBRip [AD]
  • Гадкий я 3 / Despicable Me 3 (2017) WEBRip [H.264 / 1080p-LQ] [AD]
  • Гадкий я 3 / Despicable Me 3 (2017) WEB-DL [H.264 / 1080p-LQ] [EN / EN Sub]


    • Комментарии (0):

      Информация

      Информация

        Посетители, находящиеся в группе Гости, не могут оставлять комментарии в данной новости.

        ↓ Меню




        ↓ Опрос

        Вы добавили сайт в закладки?
        Да
        Нет


        Top 10 за месяц (Мультфильмы)