.
Авторизация | Регистрация
Хочешь лучшие торренты? Добавь свой email!
Добавить

Торрент скачать бесплатно

» » Смурфики: Затерянная деревня / Smurfs: The Lost Village (2017) BDRemux [H.264 / 1080p] торрент скачать бесплатно




    Смурфики: Затерянная деревня / Smurfs: The Lost Village (2017) BDRemux [H.264 / 1080p] торрент скачать бесплатно

    Опубликовал: Админ | Дата: 26-09-2017, 05:00 | Просмотров: 0

    Производство: США, Columbia Pictures
    Жанр: Мультфильм, фэнтези, комедия, приключения, семейный
    Режиссер: Келли Эсбёри
    Продюсер: Мэри Эллен Бодер, Джордан Кернер, Раджа Госнелл
    Персонажи: Ариэль Уинтер, Джо Манганьелло, Мишель Родригес, Джулия Робертс, Элли Кемпер, Мэнди Пэтинкин, Рэйн Уилсон, Деми Ловато, Джейк Джонсон, Джек МакБрайер

    Описание

    Смурфетта и её лучшие друзья Умник, Растяпа и Силач, отправляются на поиски таинственной затерянной деревни, стремясь опередить злобного волшебника Гаргамеля. В пути смурфиков ожидают невероятные опасности и головокружительные приключения, но игра стоит свеч, ведь в конечном итоге герои смогут разгадать самую большую загадку в истории своего существования!

    Возраст: 6+ (зрителям, достигшим 6 лет)
    Рейтинг MPAA: PG (рекомендуется присутствие родителей)
    Дата мировой премьеры: 23 марта 2017
    Дата премьеры в России: 30 марта 2017, WDSSPR 3D

    Релиз от: MR Sergei
    Продолжительность: 01: 29: 46
    Качество: BDRemux 1080p
    Перевод: Дублированный (Лицензия BD CEE)
    Субтитры: Русские (Forced, Full), украинские (Forced, Full), английские (Full, SDH, SDH-Colored)
    Видео: AVC/H.264, 1920x1080 (16: 9), 25829 kbps, 23.976 fps
    Аудио #1: AC3, 5.1, 48 kHz, 640 kbps | Русский
    Аудио #2: AC3, 2.0, 48 kHz, 192 kbps | Украинский
    Аудио #3: DTS-HD MA, 5.1, 48 kHz, 2353 kbps, 16-bit | Английский

    Общее
    Уникальный идентификатор : 209725345790365864925574839575489548629 (0x9DC7A1E20C32615498C71B5449381155)
    Полное имя : D: ФильмыSmurfiki.Zateryannaya.derevnya.2017.BDRemux.1080p.nnm-club.mkv
    Формат : Matroska
    Версия формата : Version 4/Version 2
    Размер файла : 18, 2 Гбайт
    Продолжительность : 1 ч. 29 м.
    Режим общего битрейта : Переменный
    Общий поток : 29, 0 Мбит/сек
    Название фильма : MR Sergei for NoNaMe Club
    Дата кодирования : UTC 2017-09-25 07: 44: 01
    Программа кодирования : mkvmerge v15.0.0 (\'Duel with the Devil\') 64-bit
    Библиотека кодирования : libebml v1.3.5 + libmatroska v1.4.5
    Attachments : Smurfs_3A-The-Lost-Village.jpg
    Видео
    Идентификатор : 1
    Формат : AVC
    Формат/Информация : Advanced Video Codec
    Профиль формата : High@L4.1
    Настройки формата : CABAC/2 Ref Frames
    Параметр CABAC формата : Да
    Параметр RefFrames формата : 2 кадра
    Параметр GOP формата : M=1, N=10
    Идентификатор кодека : V_MPEG4/ISO/AVC
    Продолжительность : 1 ч. 29 м.
    Вид битрейта : Переменный
    Битрейт : 25, 8 Мбит/сек
    Ширина : 1920 пикселей
    Высота : 1080 пикселей
    Соотношение сторон : 16: 9
    Режим частоты кадров : Постоянный
    Частота кадров : 23, 976 (24000/1001) кадра/сек
    Цветовое пространство : YUV
    Субдискретизация насыщенности : 4: 2: 0
    Битовая глубина : 8 бит
    Тип развёртки : Прогрессивная
    Бит/(Пиксели*Кадры) : 0.520
    Размер потока : 16, 2 Гбайт (89%)
    Язык : English
    Default : Да
    Forced : Нет
    Аудио #1
    Идентификатор : 2
    Формат : AC-3
    Формат/Информация : Audio Coding 3
    Параметр Endianness формата : Big
    Идентификатор кодека : A_AC3
    Продолжительность : 1 ч. 29 м.
    Вид битрейта : Постоянный
    Битрейт : 640 Кбит/сек
    Каналы : 6 каналов
    Расположение каналов : Front: L C R, Side: L R, LFE
    Частота : 48, 0 КГц
    Частота кадров : 31, 250 кадров/сек (1536 SPF)
    Битовая глубина : 16 бит
    Метод сжатия : С потерями
    Размер потока : 411 Мбайт (2%)
    Заголовок : Licence
    Язык : Russian
    ServiceKind/String : Complete Main
    Default : Да
    Forced : Нет
    Аудио #2
    Идентификатор : 3
    Формат : AC-3
    Формат/Информация : Audio Coding 3
    Параметр Endianness формата : Big
    Идентификатор кодека : A_AC3
    Продолжительность : 1 ч. 29 м.
    Вид битрейта : Постоянный
    Битрейт : 192 Кбит/сек
    Каналы : 2 канала
    Расположение каналов : Front: L R
    Частота : 48, 0 КГц
    Частота кадров : 31, 250 кадров/сек (1536 SPF)
    Битовая глубина : 16 бит
    Метод сжатия : С потерями
    Размер потока : 123 Мбайт (1%)
    Заголовок : iTunes
    Язык : Ukrainian
    ServiceKind/String : Complete Main
    Default : Нет
    Forced : Нет
    Аудио #3
    Идентификатор : 4
    Формат : DTS
    Формат/Информация : Digital Theater Systems
    Профиль формата : MA/Core
    Режим : 16
    Параметр Endianness формата : Big
    Идентификатор кодека : A_DTS
    Продолжительность : 1 ч. 29 м.
    Вид битрейта : Переменный/Постоянный
    Битрейт : 2353 Кбит/сек/1509 Кбит/сек
    Каналы : 6 каналов
    Расположение каналов : Front: L C R, Side: L R, LFE
    Частота : 48, 0 КГц
    Частота кадров : 93, 750 кадра/сек (512 SPF)
    Битовая глубина : 16 бит
    Метод сжатия : Без потерь/Lossy
    Размер потока : 1, 48 Гбайт (8%)
    Заголовок : Licence
    Язык : English
    Default : Нет
    Forced : Нет
    Текст #1
    Идентификатор : 5
    Формат : UTF-8
    Идентификатор кодека : S_TEXT/UTF8
    Идентификатор кодека/Информация : UTF-8 Plain Text
    Продолжительность : 1 ч. 27 м.
    Битрейт : 0 бит/сек
    ElementCount : 4
    Размер потока : 275 байт (0%)
    Заголовок : Force
    Язык : Russian
    Default : Да
    Forced : Нет
    Текст #2
    Идентификатор : 6
    Формат : UTF-8
    Идентификатор кодека : S_TEXT/UTF8
    Идентификатор кодека/Информация : UTF-8 Plain Text
    Продолжительность : 1 ч. 28 м.
    Битрейт : 91 бит/сек
    ElementCount : 1099
    Размер потока : 59, 5 Кбайт (0%)
    Заголовок : Full
    Язык : Russian
    Default : Нет
    Forced : Нет
    Текст #3
    Идентификатор : 7
    Формат : UTF-8
    Идентификатор кодека : S_TEXT/UTF8
    Идентификатор кодека/Информация : UTF-8 Plain Text
    Продолжительность : 10 с. 844 мс.
    Битрейт : 152 бит/сек
    ElementCount : 2
    Размер потока : 207 байт (0%)
    Заголовок : Force
    Язык : Ukrainian
    Default : Нет
    Forced : Нет
    Текст #4
    Идентификатор : 8
    Формат : UTF-8
    Идентификатор кодека : S_TEXT/UTF8
    Идентификатор кодека/Информация : UTF-8 Plain Text
    Продолжительность : 1 ч. 28 м.
    Битрейт : 85 бит/сек
    ElementCount : 1098
    Размер потока : 55, 2 Кбайт (0%)
    Заголовок : Full
    Язык : Ukrainian
    Default : Нет
    Forced : Нет
    Текст #5
    Идентификатор : 9
    Формат : UTF-8
    Идентификатор кодека : S_TEXT/UTF8
    Идентификатор кодека/Информация : UTF-8 Plain Text
    Продолжительность : 1 ч. 25 м.
    Битрейт : 54 бит/сек
    ElementCount : 1094
    Размер потока : 34, 1 Кбайт (0%)
    Заголовок : Full
    Язык : English
    Default : Нет
    Forced : Нет
    Текст #6
    Идентификатор : 10
    Формат : UTF-8
    Идентификатор кодека : S_TEXT/UTF8
    Идентификатор кодека/Информация : UTF-8 Plain Text
    Продолжительность : 1 ч. 28 м.
    Битрейт : 77 бит/сек
    ElementCount : 1753
    Размер потока : 50, 1 Кбайт (0%)
    Заголовок : SDH
    Язык : English
    Default : Нет
    Forced : Нет
    Текст #7
    Идентификатор : 11
    Формат : UTF-8
    Идентификатор кодека : S_TEXT/UTF8
    Идентификатор кодека/Информация : UTF-8 Plain Text
    Продолжительность : 1 ч. 29 м.
    Битрейт : 113 бит/сек
    ElementCount : 1755
    Размер потока : 74, 8 Кбайт (0%)
    Заголовок : SDH (Colored)
    Язык : English
    Default : Нет
    Forced : Нет
    Меню
    00: 00: 00.000 : : 1
    00: 08: 48.445 : : 2
    00: 11: 03.413 : : 3
    00: 14: 33.748 : : 4
    00: 21: 21.069 : : 5
    00: 27: 25.143 : : 6
    00: 30: 33.538 : : 7
    00: 36: 49.081 : : 8
    00: 42: 41.349 : : 9
    00: 45: 58.672 : : 10
    00: 50: 35.949 : : 11
    00: 57: 03.585 : : 12
    01: 02: 35.293 : : 13
    01: 09: 07.769 : : 14
    01: 14: 39.475 : : 15
    01: 19: 34.478 : : 16

    Скриншоты для ознакомления


    Все одноименные релизы в Клубе
    Время раздачи: 24/7 (до появления первых 3-5 скачавших)

    Онлайн видео Смурфики: Затерянная деревня



    Смурфики: Затерянная деревня/Smurfs: The Lost Village (2017) BDRemux [H.264/1080p]
    загрузка...
    Рейтинг →
     (голосов: 1, оценка 3/5, голосовать можно 1 раз )

    Другие торренты по теме:

  • Смурфики: Затерянная деревня / Smurfs: The Lost Village (2017) TS
  • Смурфики: Затерянная деревня / Smurfs: The Lost Village (2017) WEB-DL [H.264 / 1080p-LQ] [EN / EN Sub]
  • Смурфики: Затерянная деревня / Smurfs: The Lost Village (2017) HDRip
  • Смурфики: Затерянная деревня / Smurfs: The Lost Village (2017) BDRip [H.264 / 720p]
  • Смурфики: Затерянная деревня / Smurfs: The Lost Village (2017) BDRip [H.265 / 1080p-LQ]
  • Смурфики: Затерянная деревня / Smurfs: The Lost Village (2017) BDRemux [H.264 / 1080p]
  • Смурфики: Затерянная деревня / Smurfs: The Lost Village (2017) HDRip [H.264]
  • Смурфики: Затерянная деревня / Smurfs: The Lost Village (2017) BDRemux [H.264 / 1080p]


    • Комментарии (0):

      Информация

      Информация

        Посетители, находящиеся в группе Гости, не могут оставлять комментарии в данной новости.

        ↓ Меню




        ↓ Опрос

        Вы добавили сайт в закладки?
        Да
        Нет


        Top 10 за месяц (Мультфильмы)

        Деревяшки (2017) WEB-DLRip [H.264 / 720p-LQ] (серии 1-5 из 26) [Обновляемая]

        (скачиваний: 82)
        Кротик и Панда / Krtek a panda (2017) WEB-DLRip [H.264 / 720p-LQ] (сезон 1, серии 1-18 из 52) [Обновляемая]

        (скачиваний: 14)
        Королевская академия / Regal Academy (2016) SATRip [H.264] (Сезон 1, 26 серий из 26) [UKR]

        (скачиваний: 11)
        Четверо в Кубе (2017) WEB-DLRip [H.264 / 720p-LQ] (серия 1 из 26) [Обновляемая]

        (скачиваний: 9)
        Филипп Алексеев | Самоучитель русского языка в схемах и таблицах (2017) [PDF]

        (скачиваний: 7)
        Наринэ Абгарян | Всё о Манюне [трилогия] (2015) [FB2] скачать через торрент бесплатно

        (скачиваний: 7)
        Сказ о Петре и Февронии (2017) CamRip [AD]

        (скачиваний: 6)
        Огги и тараканы / Oggy et les cafards (2012) TVRip [H.264] (Сезон 4, Серии 74 из 74)

        (скачиваний: 6)
        Хантик - Искатели Секретов / Huntik: Secrets & Seekers (2009) DVB (сезон 1: серия 1-26 из 26) DUB скачать через торрент бесплатно

        (скачиваний: 5)
        Эльмира Давыдова | Характер ребенка – приговор Книга о том, как помочь ребенку выбрать профессию (2017) [PDF]

        (скачиваний: 5)