.
Авторизация | Регистрация
Хочешь лучшие торренты? Добавь свой email!
Добавить

Торрент скачать бесплатно

» » Макс Грин и инопланетяне / Pumpkin Reports (2017) WEB-DLRip [H.264 / 720p-LQ] (сезон 1-2, серии 1-36 из 52) [Обновляемая] торрент скачать бесплатно




    Макс Грин и инопланетяне / Pumpkin Reports (2017) WEB-DLRip [H.264 / 720p-LQ] (сезон 1-2, серии 1-36 из 52) [Обновляемая] торрент скачать бесплатно

    Опубликовал: Админ | Дата: 12-09-2017, 05:00 | Просмотров: 2

    Год выпуска: 2017
    Производство: Испания
    Жанр: Мультсериал, Компьютерная анимация
    Режиссер: Алексис Барросо

    Описание

    Одиннадцатилетний Макс Грин живет беззаботной жизнью со своими родителями. Он самый успешный и популярный ребенок в тихом городке Кукуртауне. В один прекрасный день он обнаруживает, что Тереза и Голиаф, его приемные брат и сестра, никто иные, как инопланетяне, которые стремятся захватить Землю! Мама и папа не верят Максу. Вайолет, подружка Макса, Пиксель — главный проказник и самый убежденный искатель инопланетян и Саймон Силликон — гениальный ученый, который постоянно изобретает различные контрмеры для противостояния инопланетным захватчикам, начинают собственное расследование. Удастся ли им раскрыть все тайны загадочной миссии пришельцев?

    Возраст: 6+ (зрителям, достигшим 6 лет)
    Рейтинг MPAA: PG (рекомендуется присутствие родителей)
    Релиз от: Natasha77
    Продолжительность: ~00: 11: 00 серия
    Качество видео: WEB-DLRip
    Перевод: Дублированный (CLS MЕDIA)
    Субтитры: Отсутствуют
    Видео: AVC/H.264, 1280x720, ~1000 kbps
    Аудио: Русский: AAC, 2 ch, 128 kbps
    General
    Unique ID : 232058041110853429395319694788005958188 (0xAE94C0C5FE0B6B2185DAB3BE020F922C)
    Complete name : C: Макс Грин и большей частью инопланетяне (720p-AVC)4_Нерешительность.mkv
    Format : Matroska
    Format version : Version 4/Version 2
    File size : 74.7 MiB
    Duration : 11 min 6 s
    Overall bit rate : 941 kb/s
    Encoded date : UTC 2017-09-08 19: 49: 49
    Writing application : mkvmerge v15.0.0 (\'Duel with the Devil\') 32-bit
    Writing library : libebml v1.3.5 + libmatroska v1.4.5
    Video
    ID : 1
    Format : AVC
    Format/Info : Advanced Video Codec
    Format profile : Main@L3.1
    Format settings, CABAC : Yes
    Format settings, RefFrames : 3 frames
    Codec ID : V_MPEG4/ISO/AVC
    Duration : 11 min 6 s
    Bit rate : 814 kb/s
    Width : 1 280 pixels
    Height : 720 pixels
    Display aspect ratio : 16: 9
    Frame rate mode : Constant
    Frame rate : 25.000 FPS
    Color space : YUV
    Chroma subsampling : 4: 2: 0
    Bit depth : 8 bits
    Scan type : Progressive
    Bits/(Pixel*Frame) : 0.035
    Stream size : 64.6 MiB (86%)
    Default : Yes
    Forced : No
    Color range : Limited
    Color primaries : BT.709
    Transfer characteristics : BT.709
    Matrix coefficients : BT.709
    Audio
    ID : 2
    Format : AAC
    Format/Info : Advanced Audio Codec
    Format profile : LC
    Codec ID : A_AAC
    Duration : 11 min 6 s
    Bit rate : 126 kb/s
    Channel(s) : 2 channels
    Channel positions : Front: L R
    Sampling rate : 44.1 kHz
    Frame rate : 43.066 FPS (1024 SPF)
    Compression mode : Lossy
    Stream size : 9.97 MiB (13%)
    Default : Yes
    Forced : No


    Онлайн видео Макс Грин и чаще всего инопланетяне



    Макс Грин и инопланетяне/Pumpkin Reports (2017) WEB-DLRip [H.264/720p-LQ] (сезон 1-2, серии 1-36 из 52) [Обновляемая]
    загрузка...
    Рейтинг →
     (голосов: 1, оценка 3/5, голосовать можно 1 раз )

    Другие торренты по теме:

  • Макс Орех (Небесная Дверь / Макс Орех Бэнд / Заводчане) - 13 альбомов (1996-2017) [MP3|320 кб / с] <Garage RocknRoll, Garage Rock, Neo-Retro>
  • Макс Пэйн / Max Payne (2008) BDRemux [1080p] [Extended Cut]
  • Макс Фрай | Мастер ветров и закатов (2014) [MP3]
  • Безумный Макс: Дорога ярости / Mad Max: Fury Road (2015) WEBRip [H.264 / 720p-LQ] [Трейлер]
  • Безумный Макс: Дорога ярости / Mad Max: Fury Road (2015) WEBRip [1080p] [Трейлер] [EN]
  • Безумный Макс / Mad Max (2014) WEBRip [H.264 / 1080p-LQ] [Трейлер]
  • Макс Корж - Домашний (2014) [MP3|320 кб / с]<Rap, Hip-Hop, Dubstep> скачать через торрент бесплатно
  • Макс Пэйн / Max Payne (2008) BDRip [1080p] [Extended Cut]


    • Комментарии (0):

      Информация

      Информация

        Посетители, находящиеся в группе Гости, не могут оставлять комментарии в данной новости.

        ↓ Меню




        ↓ Опрос

        Вы добавили сайт в закладки?
        Да
        Нет


        Top 10 за месяц (Мультфильмы)