.
Авторизация | Регистрация
Хочешь лучшие торренты? Добавь свой email!
Добавить

Торрент скачать бесплатно

» » Пираты! Банда неудачников / The Pirates! Band of Misfits (2012) BDRip [H.265 / 1080p-LQ] торрент скачать бесплатно




    Пираты! Банда неудачников / The Pirates! Band of Misfits (2012) BDRip [H.265 / 1080p-LQ] торрент скачать бесплатно

    Опубликовал: Админ | Дата: 11-09-2017, 05:00 | Просмотров: 0

    Производство: США, Великобритания/Aardman Animations, Sony Pictures Animation
    Жанр: Мультфильм, Приключения, Комедия, Семейный
    Режиссер: Питер Лорд, Джефф Ньюитт
    Персонажи: Хью Грант, Брендан Глисон, Джереми Пивен, Брайан Блессид, Ленни Генри, Сальма Хайек, Коннор Бирн, Мартин Фриман, Эшли Дженсен, Питер Лорд

    Описание

    Экранизация первой книги из серии романов писателя Гидеона Дефо, рассказывающих о банде незадачливых пиратов. В первой части пираты прибывают в Лондон, где знакомятся с молодым Чарльзом Дарвином и говорящим шимпанзе по имени Мистер Бобо, а также столкнутся с врагами, которые хотят их уничтожить.

    Возраст: 0+ (для любой зрительской аудитории)
    Рейтинг MPAA: PG (рекомендуется присутствие родителей)
    Релиз от: Ciame
    Продолжительность: 01: 28: 05
    Качество видео: BDRip
    Перевод: Дублированный
    Субтитры: русские, английские
    Видео: HEVC/H.265, 1920x816, ~5308 Kbps
    Аудио 1: AC3, 6 ch, 640 Kbps (русский)
    Аудио 2: AC3, 6 ch, 640 Kbps (английский)

    Общее
    Уникальный идентификатор : 242411450921341228778845539141745507777 (0xB65EBF49C1873E17954E072C34D5FDC1)
    Полное имя : E: VideoПираты! Банда неудачников (The Pirates! Band of Misfits).mkv
    Формат : Matroska
    Версия формата : Version 4/Version 2
    Размер файла : 3, 44 Гбайт
    Продолжительность : 1 ч. 28 м.
    Общий поток : 6590 Кбит/сек
    Название фильма : Пираты! Банда неудачников/The Pirates! Band of Misfits
    Дата кодирования : UTC 2017-09-04 12: 41: 02
    Программа кодирования : mkvmerge v12.0.0 (\'Trust/Lust\') 64bit
    Библиотека кодирования : libebml v1.3.4 + libmatroska v1.4.5
    Авторское право : Encoded by Ciame
    Released by : Buba5473 for NNM-Club
    Видео
    Идентификатор : 1
    Формат : HEVC
    Формат/Информация : High Efficiency Video Coding
    Профиль формата : Main@L4@Main
    Идентификатор кодека : V_MPEGH/ISO/HEVC
    Продолжительность : 1 ч. 28 м.
    Битрейт : 5308 Кбит/сек
    Ширина : 1920 пикселей
    Высота : 816 пикселей
    Соотношение сторон : 2, 35: 1
    Режим частоты кадров : Постоянный
    Частота кадров : 23, 976 (24000/1001) кадра/сек
    Цветовое пространство : YUV
    Субдискретизация насыщенности : 4: 2: 0
    Битовая глубина : 8 бит
    Бит/(Пиксели*Кадры) : 0.115
    Размер потока : 2, 65 Гбайт (77%)
    Заголовок : Pirati! Briganti da strapazzo (2012) - Ciame
    Библиотека кодирования : x265 1.5: WindowsGCC 4.9.064 bit
    Настройки программы : wpp/ctu=32/tu-intra-depth=1/tu-inter-depth=1/me=1/subme=1/merange=57/no-rect/no-amp/max-merge=2/temporal-mvp/early-skip/no-fast-cbf/rdpenalty=0/no-tskip/no-tskip-fast/strong-intra-smoothing/no-lossless/no-cu-lossless/no-constrained-intra/fast-intra/open-gop/interlace=0/keyint=240/min-keyint=24/scenecut=40/rc-lookahead=15/bframes=4/bframe-bias=0/b-adapt=0/ref=1/weightp/no-weightb/aq-mode=1/aq-strength=1.00/cbqpoffs=0/crqpoffs=0/rd=2/psy-rd=0.30/psy-rdoq=0.00/signhide/lft/sao/no-sao-non-deblock/b-pyramid/no-cutree/rc=crf/crf=17.0/qcomp=0.60/qpmin=0/qpmax=51/qpstep=4/ipratio=1.40/pbratio=1.30
    Default : Да
    Forced : Нет
    Цветовой диапазон : Limited
    Основные цвета : BT.709
    Характеристики трансфера : BT.709
    Коэффициенты матрицы : BT.709
    Аудио #1
    Идентификатор : 2
    Формат : AC-3
    Формат/Информация : Audio Coding 3
    Параметр Endianness формата : Big
    Идентификатор кодека : A_AC3
    Продолжительность : 1 ч. 28 м.
    Вид битрейта : Постоянный
    Битрейт : 640 Кбит/сек
    Каналы : 6 каналов
    Расположение каналов : Front: L C R, Side: L R, LFE
    Частота : 48, 0 КГц
    Частота кадров : 31, 250 кадров/сек (1536 spf)
    Битовая глубина : 16 бит
    Метод сжатия : С потерями
    Задержка видео : -83 мс.
    Размер потока : 403 Мбайт (11%)
    Заголовок : AC3 5.1 640 Kbps Дубляж
    Язык : Russian
    ServiceKind/String : Complete Main
    Default : Да
    Forced : Нет
    Аудио #2
    Идентификатор : 3
    Формат : AC-3
    Формат/Информация : Audio Coding 3
    Параметр Endianness формата : Big
    Идентификатор кодека : A_AC3
    Продолжительность : 1 ч. Вилами по воде писано, сказал кто то из толпы, к чему не понятно. 28 м.
    Вид битрейта : Постоянный
    Битрейт : 640 Кбит/сек
    Каналы : 6 каналов
    Расположение каналов : Front: L C R, Side: L R, LFE
    Частота : 48, 0 КГц
    Частота кадров : 31, 250 кадров/сек (1536 spf)
    Битовая глубина : 16 бит
    Метод сжатия : С потерями
    Задержка видео : -83 мс.
    Размер потока : 403 Мбайт (11%)
    Язык : English
    ServiceKind/String : Complete Main
    Default : Нет
    Forced : Нет
    Текст #1
    Идентификатор : 4
    Формат : UTF-8
    Идентификатор кодека : S_TEXT/UTF8
    Идентификатор кодека/Информация : UTF-8 Plain Text
    Продолжительность : 1 ч. Прикольно все это наверно придумал Чак Норрис потратив достаточно времени. 21 м.
    Битрейт : 59 бит/сек
    ElementCount : 1228
    Размер потока : 35, 5 Кбайт (0%)
    Заголовок : Normale
    Язык : English
    Default : Нет
    Forced : Нет
    Текст #2
    Идентификатор : 5
    Формат : UTF-8
    Идентификатор кодека : S_TEXT/UTF8
    Идентификатор кодека/Информация : UTF-8 Plain Text
    Продолжительность : 1 ч. 21 м.
    Битрейт : 98 бит/сек
    ElementCount : 1141
    Размер потока : 59, 1 Кбайт (0%)
    Язык : Russian
    Default : Да
    Forced : Нет
    Меню
    00: 00: 00.000 : en: 00: 00: 00.000
    00: 08: 38.685 : en: 00: 08: 38.685
    00: 15: 13.663 : en: 00: 15: 13.663
    00: 20: 32.440 : en: 00: 20: 32.440
    00: 27: 06.708 : en: 00: 27: 06.708
    00: 33: 08.987 : en: 00: 33: 08.987
    00: 37: 25.493 : en: 00: 37: 25.493
    00: 42: 05.440 : en: 00: 42: 05.440
    00: 47: 28.179 : en: 00: 47: 28.179
    00: 51: 56.196 : en: 00: 51: 56.196
    00: 56: 41.523 : en: 00: 56: 41.523
    01: 01: 10.208 : en: 01: 01: 10.208
    01: 07: 12.487 : en: 01: 07: 12.487
    01: 11: 54.185 : en: 01: 11: 54.185
    01: 16: 23.287 : en: 01: 16: 23.287
    01: 19: 17.670 : en: 01: 19: 17.670
    XMP
    Xmp.video.FileName : E: VideoПираты! Банда неудачников (The Pirates! Band of Misfits).mkv
    Xmp.video.FileSize : -573.691
    Xmp.video.MimeType : video/matroska
    Xmp.video.EBMLVersion : 1
    Xmp.video.EBMLReadVersion : 1
    Xmp.video.DocType : matroska
    Xmp.video.DocTypeVersion : 4
    Xmp.video.DocTypeReadVersion : 2
    Xmp.video.TimecodeScale : 0.001
    Xmp.video.MuxingApp : libebml v1.3.4 + libmatroska v1.4.5
    Xmp.video.WritingApp : mkvmerge v12.0.0 (\'Trust/Lust\') 64bit
    Xmp.video.Duration : 5285363
    Xmp.video.DateUTC : 526221662
    Xmp.video.Title : Пираты! Банда неудачников/The Pirates! Band of Misfits
    Xmp.video.TotalStream : 22
    Xmp.video.TrackLacing : No
    Xmp.video.Codec : V_MPEGH/ISO/HEVC
    Xmp.video.FrameRate : 23.976
    Xmp.video.TrackLang : und
    Xmp.video.TrackName : Normale
    Xmp.video.Width : 1920
    Xmp.video.Height : 816
    Xmp.audio.Compressor : A_AC3
    Xmp.audio.DefaultDuration : 32000
    Xmp.audio.TrackLang : rus
    Xmp.audio.SampleRate : 48000
    Xmp.audio.DefaultOn : No
    Xmp.video.SubTDefaultOn : No
    Xmp.video.SubTTrackLacing : No
    Xmp.video.SubTCodec : S_TEXT/UTF8
    Xmp.video.SubTLang : rus
    Xmp.video.AspectRatio : 2.35: 1
    H.265/HEVC (High Efficiency Video Coding) - это новый стандарт кодирования видео.
    *Рипы в фомате HEVC, в настоящее время не поддерживается большинством аппаратных проигрывателей.
    *Для корректного воспроизведения может потребоваться обновление ПО.
    *Стандарт H.265/HEVC является логическим продолжением стандарта H.264/AVC (Advanced Video Coding), и характеризуется более эффективными алгоритмами сжатия, а также поддержкой высокого разрешения вплоть до 8K UHD (8192x4320). Первая версия стандарта H.265 была опубликована в начале 2013 года.
    Любителям решения из коробки - установить последнюю версию на выбор:
    Media Player Classic - Black Edition (MPC-BE)
    VLC media player
    Daum Pot Player
    GOM Media Player
    Любителям WMP и других плееров, использующих по умолчанию для воспроизведения системные кодеки+сплитеры - установить K-Lite Codec Pack версии 10.1.0 и выше.
    Любимые плееры, не использующии по умолчанию для воспроизведения системные кодеки+сплитеры, нужно перенастроить на испоьзование оных.

    Скриншоты для ознакомления



    Все одноименные релизы в Клубе
    Время раздачи: с 11: 00 до 21: 00 нск (до появления первых 3-5 скачавших)

    Онлайн видео Пираты! Банда неудачников



    Пираты! Банда неудачников/The Pirates! Band of Misfits (2012) BDRip [H.265/1080p-LQ]
    загрузка...
    Рейтинг →
     (голосов: 1, оценка 4/5, голосовать можно 1 раз )

    Другие торренты по теме:

  • Пираты / Pirates (2014) HDTVRip
  • Mouretsu Pirates - Akuu no Shinen | Moretsu Pirates: Abyss of Hyperspace | Лихие космические пираты - Бездна Гиперпространства [2014, MV] BDrip 1080p raw скачать через торрент бесплатно
  • Пираты / Hae-jeok: Ba-da-ro gan san-jeok (2014) BDRip [1080p]
  • Пираты Карибского моря: Квадрология / Pirates of the Caribbean: Quadrilogy (2003,2006,2007,2011) BDRip [720p] скачать через торрент бесплатно
  • Пираты / Pirates (2014) HDRip [576p] iPad скачать через торрент бесплатно
  • Black Lagoon | Пираты «Черной лагуны» | Чёрная лагуна [2006, TV + Sp, 24 + 7 эп.] BDRip 1080p Hi10P raw + rus
  • Азиатские пираты - Раздаю всем сердцем (2015, AMV, 1 эп.) WEB-DLRip 720p Raw скачать через торрент бесплатно
  • Pirates! Showdown 1.1.50 - (Пираты! Абордаж) Морская стратегия [En] скачать через торрент бесплатно


    • Комментарии (0):

      Информация

      Информация

        Посетители, находящиеся в группе Гости, не могут оставлять комментарии в данной новости.

        ↓ Меню




        ↓ Опрос

        Вы добавили сайт в закладки?
        Да
        Нет


        Top 10 за месяц (Мультфильмы)