.
Авторизация | Регистрация
Хочешь лучшие торренты? Добавь свой email!
Добавить

Торрент скачать бесплатно

» » Динозавр / Dinosaur (2000) BDRip [H.264 / 1080p] торрент скачать бесплатно




    Динозавр / Dinosaur (2000) BDRip [H.264 / 1080p] торрент скачать бесплатно

    Опубликовал: Админ | Дата: 11-09-2017, 05:00 | Просмотров: 0

    Производство: Walt Disney
    Жанр: Детский, Приключения, Компьютерная анимация
    Режиссер: Зондаг Ральф, Лейтон Эрик
    Персонажи: Д. Б. Суини /D. B. Sweeney, Осси Дэвис /Ossie Davis, Джоан Плоурайт /Joan Plowright, Элфри Вудард /Alfre Woodard, Макс Каселла /Max Casella, Хэйден Панетиерри /Hayden Panettiere, Сэмуэл И. Райт /Samuel E. Wright, Джулианна Маргулис /Julianna Margulies, Питер Сирагуза /Peter Siragusa

    Описание

    Трогательная история динозавра-игуанодона по имени Аладар, который воспитывался на острове в семье лемуров. Когда опустошительный метеоритный ливень разрушает их дома, Аладар вместе с лемурами и странствующими динозаврами отправился на поиски нового места жительства. Лицом к лицу с такими опасностями, как внезапные оползни и атакующие циранотавры, Аладар и его новые друзья должны преодолеть невероятные трудности до того, как обретут новую родину в прекрасной долине...

    Возраст: 6+ (зрителям, достигшим 6 лет)
    Рейтинг MPAA: PG (рекомендуется присутствие родителей)
    Дата мировой премьеры: 13 мая 2000г.
    Дата российской премьеры: 29 апреля 2001, Каскад
    Дата выхода DVD/Blu-ray релиза: 5 октября 2009, ВС трейд
    Релиз от: RG NNM Club Video
    Продолжительность: 01: 21: 59
    Качество видео: BDRip
    Перевод: Дублированный
    Субтитры: русские, английские (полные)
    Видео: AVC/H.264, 1920х1040, ~9.5 mbps
    Аудио #1: AC3, 2 ch, 320 kbps - русский
    Аудио #2: AC3, 6 ch, 640 kbps - английский

    x264 info: frame I: 970 Avg QP: 13.79 size: 213807
    x264 info: frame P: 30743 Avg QP: 15.56 size: 85403
    x264 info: frame B: 86247 Avg QP: 17.81 size: 34854
    Format : Matroska
    Format version : Version 4/Version 2
    File size : 5.99 GiB
    Duration : 1h 22mn
    Overall bit rate : 10.4 Mbps
    Encoded date : UTC 2017-09-09 05: 22: 24
    Writing application : mkvmerge v9.8.0 (\'Kuglblids\') 64bit
    Writing library : libebml v1.3.4 + libmatroska v1.4.5
    Video
    ID : 1
    Format : AVC
    Format/Info : Advanced Video Codec
    Format profile : High@L4.1
    Format settings, CABAC : Yes
    Format settings, ReFrames : 4 frames
    Codec ID : V_MPEG4/ISO/AVC
    Duration : 1h 22mn
    Bit rate : 9 500 Kbps
    Width : 1 920 pixels
    Height : 1 040 pixels
    Display aspect ratio : 1.85: 1
    Frame rate mode : Constant
    Frame rate : 23.976 fps
    Color space : YUV
    Chroma subsampling : 4: 2: 0
    Bit depth : 8 bits
    Scan type : Progressive
    Bits/(Pixel*Frame) : 0.198
    Stream size : 5.32 GiB (89%)
    Writing library : x264 core 152 r2851M ba24899
    Encoding settings : cabac=1/ref=4/deblock=1: -3: -3/analyse=0x3: 0x113/me=umh/subme=10/psy=1/psy_rd=1.05: 0.10/mixed_ref=1/me_range=24/chroma_me=1/trellis=2/8x8dct=1/cqm=0/deadzone=21, 11/fast_pskip=0/chroma_qp_offset=-3/threads=5/lookahead_threads=1/sliced_threads=0/nr=0/decimate=1/interlaced=0/bluray_compat=0/constrained_intra=0/bframes=8/b_pyramid=2/b_adapt=2/b_bias=0/direct=1/weightb=1/open_gop=0/weightp=2/keyint=230/keyint_min=23/scenecut=40/intra_refresh=0/rc=2pass/mbtree=0/bitrate=9500/ratetol=1.0/qcomp=0.70/qpmin=3/qpmax=69/qpstep=4/cplxblur=20.0/qblur=0.5/ip_ratio=1.40/pb_ratio=1.30/aq=2: 1.00
    Default : Yes
    Forced : No
    Audio #1
    ID : 2
    Format : AC-3
    Format/Info : Audio Coding 3
    Mode extension : CM (complete main)
    Format settings, Endianness : Big
    Codec ID : A_AC3
    Duration : 1h 22mn
    Bit rate mode : Constant
    Bit rate : 320 Kbps
    Channel(s) : 2 channels
    Channel positions : Front: L R
    Sampling rate : 48.0 KHz
    Bit depth : 16 bits
    Compression mode : Lossy
    Stream size : 188 MiB (3%)
    Language : Russian
    Default : Yes
    Forced : No
    Audio #2
    ID : 3
    Format : AC-3
    Format/Info : Audio Coding 3
    Mode extension : CM (complete main)
    Format settings, Endianness : Big
    Codec ID : A_AC3
    Duration : 1h 22mn
    Bit rate mode : Constant
    Bit rate : 640 Kbps
    Channel(s) : 6 channels
    Channel positions : Front: L C R, Side: L R, LFE
    Sampling rate : 48.0 KHz
    Bit depth : 16 bits
    Compression mode : Lossy
    Stream size : 376 MiB (6%)
    Language : English
    Default : No
    Forced : No
    Text #1
    ID : 4
    Format : UTF-8
    Codec ID : S_TEXT/UTF8
    Codec ID/Info : UTF-8 Plain Text
    Title : Russian: Subtitles
    Language : Russian
    Default : No
    Forced : No
    Text #2
    ID : 5
    Format : UTF-8
    Codec ID : S_TEXT/UTF8
    Codec ID/Info : UTF-8 Plain Text
    Title : English: Subtitles
    Language : English
    Default : No
    Forced : No


    Онлайн видео Динозавр



    Динозавр/Dinosaur (2000) BDRip [H.264/1080p]
    загрузка...
    Рейтинг →
     (голосов: 1, оценка 5/5, голосовать можно 1 раз )

    Другие торренты по теме:

  • Динозавр / Dinosaur (2000) BDRemux [MPEG 2 / 1080p]
  • Динозавр 13 / Dinosaur 13 (2014) SATRip скачать через торрент бесплатно
  • Хороший динозавр / The Good Dinosaur (2015) CamRip скачать через торрент бесплатно
  • Хороший динозавр / The Good Dinosaur (2015) WEBRip [звук c CamRip] скачать через торрент бесплатно
  • Хороший динозавр / The Good Dinosaur (2015) BDRip [H.264 / 720-LQ] [звук c CamRip]
  • Хороший динозавр / The Good Dinosaur (2015) HDRip [звук c CamRip]
  • Хороший динозавр / The Good Dinosaur (2015) BDRip [H.264 / 1080p-LQ] [звук c CamRip]
  • Хороший динозавр / The Good Dinosaur (2015) BDRip [H.264 / 1080p-LQ]


    • Комментарии (0):

      Информация

      Информация

        Посетители, находящиеся в группе Гости, не могут оставлять комментарии в данной новости.

        ↓ Меню




        ↓ Опрос

        Вы добавили сайт в закладки?
        Да
        Нет


        Top 10 за месяц (Мультфильмы)